  0
SECTION
  2
HEADER
  9
$ACADVER
  1
AC1015
  9
$ACADMAINTVER
 70
    10
  9
$DWGCODEPAGE
  3
ANSI_1252
  9
$INSBASE
 10
0.0
 20
0.0
 30
0.0
  9
$EXTMIN
 10
727.8087940597928
 20
15.44105987048789
 30
0.0
  9
$EXTMAX
 10
787.808794059793
 20
84.72309217324337
 30
0.0
  9
$LIMMIN
 10
0.0
 20
0.0
  9
$LIMMAX
 10
12.0
 20
9.0
  9
$ORTHOMODE
 70
     0
  9
$REGENMODE
 70
     1
  9
$FILLMODE
 70
     1
  9
$QTEXTMODE
 70
     0
  9
$MIRRTEXT
 70
     1
  9
$LTSCALE
 40
25.0
  9
$ATTMODE
 70
     1
  9
$TEXTSIZE
 40
5.0
  9
$TRACEWID
 40
0.05
  9
$TEXTSTYLE
  7
STANDARD
  9
$CLAYER
  8
03-KONTUR
  9
$CELTYPE
  6
BYLAYER
  9
$CECOLOR
 62
   256
  9
$CELTSCALE
 40
1.0
  9
$DISPSILH
 70
     0
  9
$DIMSCALE
 40
1.0
  9
$DIMASZ
 40
4.0
  9
$DIMEXO
 40
0.0625
  9
$DIMDLI
 40
0.0
  9
$DIMRND
 40
0.0
  9
$DIMDLE
 40
0.0
  9
$DIMEXE
 40
2.0
  9
$DIMTP
 40
0.25
  9
$DIMTM
 40
0.0
  9
$DIMTXT
 40
3.5
  9
$DIMCEN
 40
0.09
  9
$DIMTSZ
 40
0.0
  9
$DIMTOL
 70
     1
  9
$DIMLIM
 70
     0
  9
$DIMTIH
 70
     0
  9
$DIMTOH
 70
     0
  9
$DIMSE1
 70
     0
  9
$DIMSE2
 70
     0
  9
$DIMTAD
 70
     1
  9
$DIMZIN
 70
     0
  9
$DIMBLK
  1

  9
$DIMASO
 70
     1
  9
$DIMSHO
 70
     1
  9
$DIMPOST
  1

  9
$DIMAPOST
  1

  9
$DIMALT
 70
     0
  9
$DIMALTD
 70
     2
  9
$DIMALTF
 40
25.4
  9
$DIMLFAC
 40
1.0
  9
$DIMTOFL
 70
     1
  9
$DIMTVP
 40
0.0
  9
$DIMTIX
 70
     0
  9
$DIMSOXD
 70
     0
  9
$DIMSAH
 70
     0
  9
$DIMBLK1
  1

  9
$DIMBLK2
  1

  9
$DIMSTYLE
  2
STANDARD
  9
$DIMCLRD
 70
     6
  9
$DIMCLRE
 70
     6
  9
$DIMCLRT
 70
     1
  9
$DIMTFAC
 40
0.7
  9
$DIMGAP
 40
2.0
  9
$DIMJUST
 70
     0
  9
$DIMSD1
 70
     0
  9
$DIMSD2
 70
     0
  9
$DIMTOLJ
 70
     0
  9
$DIMTZIN
 70
     0
  9
$DIMALTZ
 70
     0
  9
$DIMALTTZ
 70
     0
  9
$DIMUPT
 70
     0
  9
$DIMDEC
 70
     1
  9
$DIMTDEC
 70
     2
  9
$DIMALTU
 70
     2
  9
$DIMALTTD
 70
     2
  9
$DIMTXSTY
  7
STANDARD
  9
$DIMAUNIT
 70
     0
  9
$DIMADEC
 70
     0
  9
$DIMALTRND
 40
0.0
  9
$DIMAZIN
 70
     0
  9
$DIMDSEP
 70
    46
  9
$DIMATFIT
 70
     3
  9
$DIMFRAC
 70
     0
  9
$DIMLDRBLK
  1

  9
$DIMLUNIT
 70
     2
  9
$DIMLWD
 70
    -2
  9
$DIMLWE
 70
    -2
  9
$DIMTMOVE
 70
     0
  9
$LUNITS
 70
     2
  9
$LUPREC
 70
     4
  9
$SKETCHINC
 40
0.1
  9
$FILLETRAD
 40
0.0
  9
$AUNITS
 70
     0
  9
$AUPREC
 70
     0
  9
$MENU
  1
.
  9
$ELEVATION
 40
0.0
  9
$PELEVATION
 40
0.0
  9
$THICKNESS
 40
0.0
  9
$LIMCHECK
 70
     0
  9
$CHAMFERA
 40
3.0
  9
$CHAMFERB
 40
3.0
  9
$CHAMFERC
 40
0.0
  9
$CHAMFERD
 40
0.0
  9
$SKPOLY
 70
     0
  9
$TDCREATE
 40
2450597.539778125
  9
$TDUCREATE
 40
2450597.498111458
  9
$TDUPDATE
 40
2453013.503782488
  9
$TDUUPDATE
 40
2453013.462115821
  9
$TDINDWG
 40
0.6222555208
  9
$TDUSRTIMER
 40
0.6222555208
  9
$USRTIMER
 70
     1
  9
$ANGBASE
 50
0.0
  9
$ANGDIR
 70
     0
  9
$PDMODE
 70
     0
  9
$PDSIZE
 40
0.0
  9
$PLINEWID
 40
0.0
  9
$SPLFRAME
 70
     0
  9
$SPLINETYPE
 70
     6
  9
$SPLINESEGS
 70
     8
  9
$HANDSEED
  5
3239
  9
$SURFTAB1
 70
     6
  9
$SURFTAB2
 70
     6
  9
$SURFTYPE
 70
     6
  9
$SURFU
 70
     6
  9
$SURFV
 70
     6
  9
$UCSBASE
  2

  9
$UCSNAME
  2

  9
$UCSORG
 10
0.0
 20
0.0
 30
0.0
  9
$UCSXDIR
 10
1.0
 20
0.0
 30
0.0
  9
$UCSYDIR
 10
0.0
 20
1.0
 30
0.0
  9
$UCSORTHOREF
  2

  9
$UCSORTHOVIEW
 70
     0
  9
$UCSORGTOP
 10
0.0
 20
0.0
 30
0.0
  9
$UCSORGBOTTOM
 10
0.0
 20
0.0
 30
0.0
  9
$UCSORGLEFT
 10
0.0
 20
0.0
 30
0.0
  9
$UCSORGRIGHT
 10
0.0
 20
0.0
 30
0.0
  9
$UCSORGFRONT
 10
0.0
 20
0.0
 30
0.0
  9
$UCSORGBACK
 10
0.0
 20
0.0
 30
0.0
  9
$PUCSBASE
  2

  9
$PUCSNAME
  2

  9
$PUCSORG
 10
0.0
 20
0.0
 30
0.0
  9
$PUCSXDIR
 10
1.0
 20
0.0
 30
0.0
  9
$PUCSYDIR
 10
0.0
 20
1.0
 30
0.0
  9
$PUCSORTHOREF
  2

  9
$PUCSORTHOVIEW
 70
     0
  9
$PUCSORGTOP
 10
0.0
 20
0.0
 30
0.0
  9
$PUCSORGBOTTOM
 10
0.0
 20
0.0
 30
0.0
  9
$PUCSORGLEFT
 10
0.0
 20
0.0
 30
0.0
  9
$PUCSORGRIGHT
 10
0.0
 20
0.0
 30
0.0
  9
$PUCSORGFRONT
 10
0.0
 20
0.0
 30
0.0
  9
$PUCSORGBACK
 10
0.0
 20
0.0
 30
0.0
  9
$USERI1
 70
     0
  9
$USERI2
 70
     0
  9
$USERI3
 70
     0
  9
$USERI4
 70
     0
  9
$USERI5
 70
     0
  9
$USERR1
 40
0.0
  9
$USERR2
 40
0.0
  9
$USERR3
 40
0.0
  9
$USERR4
 40
0.0
  9
$USERR5
 40
0.0
  9
$WORLDVIEW
 70
     1
  9
$SHADEDGE
 70
     3
  9
$SHADEDIF
 70
    70
  9
$TILEMODE
 70
     1
  9
$MAXACTVP
 70
    16
  9
$PINSBASE
 10
0.0
 20
0.0
 30
0.0
  9
$PLIMCHECK
 70
     0
  9
$PEXTMIN
 10
1.000000000000000E+20
 20
1.000000000000000E+20
 30
1.000000000000000E+20
  9
$PEXTMAX
 10
-1.000000000000000E+20
 20
-1.000000000000000E+20
 30
-1.000000000000000E+20
  9
$PLIMMIN
 10
0.0
 20
0.0
  9
$PLIMMAX
 10
12.0
 20
9.0
  9
$UNITMODE
 70
     0
  9
$VISRETAIN
 70
     0
  9
$PLINEGEN
 70
     0
  9
$PSLTSCALE
 70
     1
  9
$TREEDEPTH
 70
  3020
  9
$CMLSTYLE
  2
STANDARD
  9
$CMLJUST
 70
     0
  9
$CMLSCALE
 40
1.0
  9
$PROXYGRAPHICS
 70
     1
  9
$MEASUREMENT
 70
     0
  9
$CELWEIGHT
370
    -1
  9
$ENDCAPS
280
     0
  9
$JOINSTYLE
280
     0
  9
$LWDISPLAY
290
     0
  9
$INSUNITS
 70
     0
  9
$HYPERLINKBASE
  1

  9
$STYLESHEET
  1

  9
$XEDIT
290
     1
  9
$CEPSNTYPE
380
     0
  9
$PSTYLEMODE
290
     1
  9
$FINGERPRINTGUID
  2
{3116F9F6-D44C-11D6-8F0E-0050BA073B6D}
  9
$VERSIONGUID
  2
{760284F0-F60D-4006-BB4B-1B06EAC2E92D}
  9
$EXTNAMES
290
     1
  9
$PSVPSCALE
 40
0.0
  9
$OLESTARTUP
290
     0
  0
ENDSEC
  0
SECTION
  2
CLASSES
  0
CLASS
  1
OLE2FRAME
  2
AcDbOle2Frame
  3
AutoCAD 2000
 90
    32768
280
     0
281
     1
  0
CLASS
  1
ACDBDICTIONARYWDFLT
  2
AcDbDictionaryWithDefault
  3
AutoCAD 2000
 90
        0
280
     0
281
     0
  0
CLASS
  1
ACDBPLACEHOLDER
  2
AcDbPlaceHolder
  3
AutoCAD 2000
 90
        0
280
     0
281
     0
  0
CLASS
  1
LAYOUT
  2
AcDbLayout
  3
AutoCAD 2000
 90
        0
280
     0
281
     0
  0
ENDSEC
  0
SECTION
  2
TABLES
  0
TABLE
  2
VPORT
  5
14F3
330
0
100
AcDbSymbolTable
 70
     3
  0
VPORT
  5
3238
330
14F3
100
AcDbSymbolTableRecord
100
AcDbViewportTableRecord
  2
*Active
 70
     0
 10
0.0
 20
0.0
 11
1.0
 21
1.0
 12
757.803384645053
 22
50.08090852547462
 13
0.0
 23
0.0
 14
1.0
 24
1.0
 15
0.0
 25
0.0
 16
0.0
 26
0.0
 36
1.0
 17
0.0
 27
0.0
 37
0.0
 40
70.09327390519034
 41
1.887814313346227
 42
50.0
 43
0.0
 44
0.0
 50
0.0
 51
0.0
 71
     0
 72
   100
 73
     1
 74
     0
 75
     0
 76
     0
 77
     0
 78
     0
281
     0
 65
     1
110
0.0
120
0.0
130
0.0
111
1.0
121
0.0
131
0.0
112
0.0
122
1.0
132
0.0
 79
     0
146
0.0
  0
ENDTAB
  0
TABLE
  2
LTYPE
  5
14F0
330
0
100
AcDbSymbolTable
 70
     3
  0
LTYPE
  5
14FD
330
14F0
100
AcDbSymbolTableRecord
100
AcDbLinetypeTableRecord
  2
BYBLOCK
 70
     0
  3

 72
    65
 73
     0
 40
0.0
  0
LTYPE
  5
14FE
330
14F0
100
AcDbSymbolTableRecord
100
AcDbLinetypeTableRecord
  2
BYLAYER
 70
     0
  3

 72
    65
 73
     0
 40
0.0
  0
LTYPE
  5
14FF
330
14F0
100
AcDbSymbolTableRecord
100
AcDbLinetypeTableRecord
  2
CONTINUOUS
 70
     0
  3
Solid line
 72
    65
 73
     0
 40
0.0
  0
LTYPE
  5
1512
330
14F0
100
AcDbSymbolTableRecord
100
AcDbLinetypeTableRecord
  2
AUSGEZOGEN
 70
     0
  3
_______________________________
 72
    65
 73
     0
 40
0.0
  0
LTYPE
  5
2181
330
14F0
100
AcDbSymbolTableRecord
100
AcDbLinetypeTableRecord
  2
MITTE
 70
     0
  3
____ _ ____ _ ____ _ ____ _ ____ _ ____ _ ____ 
 72
    65
 73
     4
 40
2.0
 49
1.25
 74
     0
 49
-0.25
 74
     0
 49
0.25
 74
     0
 49
-0.25
 74
     0
  0
ENDTAB
  0
TABLE
  2
LAYER
  5
14ED
330
0
100
AcDbSymbolTable
 70
    10
  0
LAYER
  5
14FA
330
14ED
100
AcDbSymbolTableRecord
100
AcDbLayerTableRecord
  2
0
 70
     0
 62
     1
  6
CONTINUOUS
370
    -3
390
3188
  0
LAYER
  5
1D3B
330
14ED
100
AcDbSymbolTableRecord
100
AcDbLayerTableRecord
  2
03-KONTUR
 70
     0
 62
     7
  6
AUSGEZOGEN
370
    -3
390
3188
  0
LAYER
  5
1E7B
330
14ED
100
AcDbSymbolTableRecord
100
AcDbLayerTableRecord
  2
02-SCHRIFTKOPF
 70
     0
 62
     1
  6
CONTINUOUS
370
    -3
390
3188
  0
LAYER
  5
20D0
330
14ED
100
AcDbSymbolTableRecord
100
AcDbLayerTableRecord
  2
10-TEXT25
 70
     0
 62
     1
  6
CONTINUOUS
370
    -3
390
3188
  0
LAYER
  5
21BB
330
14ED
100
AcDbSymbolTableRecord
100
AcDbLayerTableRecord
  2
06-SCHRAFFUR
 70
     0
 62
     6
  6
CONTINUOUS
370
    -3
390
3188
  0
LAYER
  5
2296
330
14ED
100
AcDbSymbolTableRecord
100
AcDbLayerTableRecord
  2
DEFPOINTS
 70
     0
 62
     1
  6
AUSGEZOGEN
290
     0
370
    -3
390
3188
  0
LAYER
  5
2A95
330
14ED
100
AcDbSymbolTableRecord
100
AcDbLayerTableRecord
  2
03-KONTUR1
 70
     0
 62
     5
  6
CONTINUOUS
370
    -3
390
3188
  0
LAYER
  5
3044
330
14ED
100
AcDbSymbolTableRecord
100
AcDbLayerTableRecord
  2
10-BEM-VORDER
 70
     0
 62
     1
  6
CONTINUOUS
370
    -3
390
3188
  0
LAYER
  5
3045
330
14ED
100
AcDbSymbolTableRecord
100
AcDbLayerTableRecord
  2
05-MITTELLINIEN
 70
     0
 62
     6
  6
MITTE
370
    -3
390
3188
  0
LAYER
  5
3197
330
14ED
100
AcDbSymbolTableRecord
100
AcDbLayerTableRecord
  2
09-INDIZEES
 70
     0
 62
     1
  6
CONTINUOUS
370
    -3
390
3188
  0
ENDTAB
  0
TABLE
  2
STYLE
  5
14EE
330
0
100
AcDbSymbolTable
 70
     1
  0
STYLE
  5
14FB
330
14EE
100
AcDbSymbolTableRecord
100
AcDbTextStyleTableRecord
  2
STANDARD
 70
     0
 40
0.0
 41
0.8
 50
0.0
 71
     0
 42
5.0
  3
C:\Programme\AutoCAD LT\romans.shx
  4

  0
ENDTAB
  0
TABLE
  2
VIEW
  5
14F1
330
0
100
AcDbSymbolTable
 70
     0
  0
ENDTAB
  0
TABLE
  2
UCS
  5
14F2
330
0
100
AcDbSymbolTable
 70
     0
  0
ENDTAB
  0
TABLE
  2
APPID
  5
14F4
330
0
100
AcDbSymbolTable
 70
     1
  0
APPID
  5
14FC
330
14F4
100
AcDbSymbolTableRecord
100
AcDbRegAppTableRecord
  2
ACAD
 70
     0
  0
ENDTAB
  0
TABLE
  2
DIMSTYLE
  5
14F5
330
0
100
AcDbSymbolTable
 70
     1
100
AcDbDimStyleTable
 71
     0
  0
DIMSTYLE
105
1516
102
{ACAD_REACTORS
330
3069
330
306A
102
}
330
14F5
100
AcDbSymbolTableRecord
100
AcDbDimStyleTableRecord
  2
STANDARD
 70
     0
279
     2
340
14FB
  0
ENDTAB
  0
TABLE
  2
BLOCK_RECORD
  5
14EC
330
0
100
AcDbSymbolTable
 70
     8
  0
BLOCK_RECORD
  5
1503
330
14EC
100
AcDbSymbolTableRecord
100
AcDbBlockTableRecord
  2
*MODEL_SPACE
340
318B
  0
BLOCK_RECORD
  5
1500
330
14EC
100
AcDbSymbolTableRecord
100
AcDbBlockTableRecord
  2
*PAPER_SPACE
340
318C
  0
BLOCK_RECORD
  5
2FB4
330
14EC
100
AcDbSymbolTableRecord
100
AcDbBlockTableRecord
  2
*D0
340
0
  0
BLOCK_RECORD
  5
2FBC
330
14EC
100
AcDbSymbolTableRecord
100
AcDbBlockTableRecord
  2
*D1
340
0
  0
BLOCK_RECORD
  5
2FC4
330
14EC
100
AcDbSymbolTableRecord
100
AcDbBlockTableRecord
  2
*X2
340
0
102
{BLKREFS
331
3047
102
}
  0
BLOCK_RECORD
  5
3046
330
14EC
100
AcDbSymbolTableRecord
100
AcDbBlockTableRecord
  2
A$C83A1
340
0
  0
BLOCK_RECORD
  5
3190
330
14EC
100
AcDbSymbolTableRecord
100
AcDbBlockTableRecord
  2
A
340
0
  0
BLOCK_RECORD
  5
31A9
330
14EC
100
AcDbSymbolTableRecord
100
AcDbBlockTableRecord
  2
Adresse
340
0
310
28000000200000002000000001000800000000000004000000000000000000000000000000000000000000004000000080000000FF000000002000004020000080200000FF200000004000004040000080400000FF400000006000004060000080600000FF600000008000004080000080800000FF80000000A0000040A000
310
0080A00000FFA0000000C0000040C0000080C00000FFC0000000FF000040FF000080FF0000FFFF0000000020004000200080002000FF002000002020004020200080202000FF202000004020004040200080402000FF402000006020004060200080602000FF602000008020004080200080802000FF80200000A0200040A0
310
200080A02000FFA0200000C0200040C0200080C02000FFC0200000FF200040FF200080FF2000FFFF2000000040004000400080004000FF004000002040004020400080204000FF204000004040004040400080404000FF404000006040004060400080604000FF604000008040004080400080804000FF80400000A0400040
310
A0400080A04000FFA0400000C0400040C0400080C04000FFC0400000FF400040FF400080FF4000FFFF4000000060004000600080006000FF006000002060004020600080206000FF206000004060004040600080406000FF406000006060004060600080606000FF606000008060004080600080806000FF80600000A06000
310
40A0600080A06000FFA0600000C0600040C0600080C06000FFC0600000FF600040FF600080FF6000FFFF6000000080004000800080008000FF008000002080004020800080208000FF208000004080004040800080408000FF408000006080004060800080608000FF608000008080004080800080808000FF80800000A080
310
0040A0800080A08000FFA0800000C0800040C0800080C08000FFC0800000FF800040FF800080FF8000FFFF80000000A0004000A0008000A000FF00A0000020A0004020A0008020A000FF20A0000040A0004040A0008040A000FF40A0000060A0004060A0008060A000FF60A0000080A0004080A0008080A000FF80A00000A0
310
A00040A0A00080A0A000FFA0A00000C0A00040C0A00080C0A000FFC0A00000FFA00040FFA00080FFA000FFFFA0000000C0004000C0008000C000FF00C0000020C0004020C0008020C000FF20C0000040C0004040C0008040C000FF40C0000060C0004060C0008060C000FF60C0000080C0004080C0008080C000FF80C00000
310
A0C00040A0C00080A0C000FFA0C00000C0C00040C0C00080C0C000FFC0C00000FFC00040FFC00080FFC000FFFFC0000000FF004000FF008000FF00FF00FF000020FF004020FF008020FF00FF20FF000040FF004040FF008040FF00FF40FF000060FF004060FF008060FF00FF60FF000080FF004080FF008080FF00FF80FF00
310
00A0FF0040A0FF0080A0FF00FFA0FF0000C0FF0040C0FF0080C0FF00FFC0FF0000FFFF0040FFFF0080FFFF00FFFFFF00FFFFFFFFFFFFFFFFFFFFFFFFFFFFFFFFFFFFFFFFFFFFFFFFFFFFFFFFFFFFFFFFFFFFFFFFFFFFFFFFFFFFFFFFFFFFFFFFFFFFFFFFFFFFFFFFFFFFFFFFFFFFFFFFFFFFFFFFFFFFFFFFFFFFFFFFFFFFFF
310
FFFFFFFFFFFFFFFFFFFFFFFFFFFFFFFFFFFFFFFFFFFFFFFFFFFFFFFFFFFFFFFFFFFFFFFFFFFFFFFFFFFFFFFFFFFFFFFFFFFFFFFFFFFFFFFFFFFFFFFFFFFFFFFFFFFFFFFFFFFFFFFFFFFFFFFFFFFFFFFFFFFFFFFFFFFFFFFFFFFFFFFFFFFFFFFFFFFFFFFFFFFFFFFFFFFFFFFFFFFFFFFFFFFFFFFFFFFFFFFFFFFFFFFFFFFFFF
310
FFFFFFFFFFFFFFFFFFFFFFFFFFFFFFFFFFFFFFFFFFFFFFFFFFFFFFFFFFFFFFFFFFFFFFFFFFFFFFFFFFFFFFFFFFFFFFFFFFFFFFFFFFFFFFFFFFFFFFFFFFFFFFFFFFFFFFFFFFFFFFFFFFFFFFFFFFFFFFFFFFFFFFFFFFFFFFFFFFFFFFFFE3E3E3E3E3E3E3E3E3E3E3E3E3E3E3E3FFFFFFFFFFFFFFFFFFFFFFFFFFFFFFFFE3E3E3
310
E3E3E3E3E3E3E3E3E3E3E3E3E3FFFFFFFFFFFFFFFFE3E3E3E3E3E3FFFFE3E3E3E3E3E3E3E3E3E3E3E3E3E3E3E3E3E3E3E3E3FFFFFFE3FFE3E3E3E3FFFFE3E3E3E3E3E3E3E3E3E3E3E3E3E3E3E3E3E3E3E3E3FFFFFFE3E3E3E3FFFFFFFFFFE3E3E3E3E3E3E3E3FFE3E3FFE3E3E3FFE3E3E3FFFFFFFFE3E3E3FFFFFFFFFFE3E3
310
E3E3E3E3E3E3E3FFE3E3E3E3E3E3E3E3E3E3FFFFFFFFFFFFFFFFFFFFFFFFFFFFFFFFE3E3E3FFFFFFFFFFFFFFFFFFFFFFFFFFFFFFFFFFE3E3E3FFFFFFFFFFFFE3E3E3E3E3E3E3E3FFE3E3FFE3E3E3FFE3FFFFFFFFFFE3E3E3FFFFFFFFFFFFE3E3E3E3E3E3E3E3E3FFE3E3E3E3E3E3E3E3E3FFFFFFFFFFFFFFFFFFFFFFFFFFFF
310
FFFFFFFFFFFFFFFFFFFFFFFFFFFFFFFFFFFFFFFFFFFFFFE3E3E3E3E3E3E3E3E3E3E3E3E3E3E3FFFFFFFFFFFFFFFFFFFFFFFFFFFFFFFFFFE3FFE3E3E3E3FFE3FFFFFFFFFFFFFFE3FFFFFFFFFFFFFFFFFFFFFFFFFFFFFFE3E3E3E3E3E3E3E3E3E3E3E3E3E3E3E3E3E3E3E3E3E3E3E3E3E3E3E3E3E3FFFFE3E3E3E3E3E3E3FFE3
310
E3E3E3E3E3E3E3E3E3E3E3E3E3E3E3E3E3E3E3E3E3FFFFFFFFFFFFFFFFFFFFFFFFFFFFFFFFFFFFFFFFFFFFFFFFFFFFFFFFFFFFFFFFFFFFFFFFFFFFFFFFFFFFFFFFFFFFFFFFFFFFFFFFFFFFFFFFFFFFFFFFFFFFFFFFFFFFFFFFFFFFFFFFFFFFFFFFFFFFFFFFFFFFFFFFFFFFFFFFFFFFFFFFFFFFFFFFFFFFFFFFFFFFFFFFFFFF
310
FFFFFFFFFFFFFFFFFFFFFFFFFFFFFFFFFFFFFFFFFFFFFFFFFFFFFFFFFFFFFFFFFFFFFFFFFFFFFFFFFFFFFFFFFFFFFFFFFFFFFFFFFFFFFFFFFFFFFFFFFFFFFFFFFFFFFFFFFFFFFFFFFFFFFFFFFFFFFFFFFFFFFFFFFFFFFFFFFFFFFFFFFFFFFFFFFFFFFFFFFFFFFFFFFFFFFFFFFFFFFFFFFFFFFFFFFFFFFFFFFFFFFFFFFFFFFF
310
FFFFFFFFFFFFFFFFFFFFFFFFFFFFFFFFFFFFFFFFFFFFFFFFFFFFFFFFFFFFFFFFFFFFFFFFFFFFFFFFFFFFFFFFFFFFFFFFFFFFFFFFFFFFFFFF
  0
BLOCK_RECORD
  5
31BB
330
14EC
100
AcDbSymbolTableRecord
100
AcDbBlockTableRecord
  2
STABMATERIAL
340
0
  0
BLOCK_RECORD
  5
31DC
330
14EC
100
AcDbSymbolTableRecord
100
AcDbBlockTableRecord
  2
S355J2G3GEZOGEN
340
0
  0
ENDTAB
  0
ENDSEC
  0
SECTION
  2
BLOCKS
  0
BLOCK
  5
1521
330
1503
100
AcDbEntity
  8
0
 62
     6
100
AcDbBlockBegin
  2
*MODEL_SPACE
 70
     0
 10
0.0
 20
0.0
 30
0.0
  3
*MODEL_SPACE
  1

  0
ENDBLK
  5
1522
330
1503
100
AcDbEntity
  8
0
 62
     6
100
AcDbBlockEnd
  0
BLOCK
  5
151F
330
1500
100
AcDbEntity
 67
     1
  8
0
 62
     6
100
AcDbBlockBegin
  2
*PAPER_SPACE
 70
     0
 10
0.0
 20
0.0
 30
0.0
  3
*PAPER_SPACE
  1

  0
ENDBLK
  5
1520
330
1500
100
AcDbEntity
 67
     1
  8
0
 62
     6
100
AcDbBlockEnd
  0
BLOCK
  5
2FBA
330
2FB4
100
AcDbEntity
  8
0
 48
10.0
100
AcDbBlockBegin
  2
*D0
 70
     1
 10
0.0
 20
0.0
 30
0.0
  3
*D0
  1

  0
LINE
  5
2FB5
330
2FB4
100
AcDbEntity
  8
0
  6
ByBlock
 62
     6
 48
10.0
100
AcDbLine
 10
392.1819587176024
 20
887.9680649500279
 30
0.0
 11
393.6668829580942
 21
886.4831407095362
 31
0.0
  0
SOLID
  5
2FB6
330
2FB4
100
AcDbEntity
  8
0
  6
ByBlock
 62
     6
 48
10.0
100
AcDbTrace
 10
393.7140234101733
 20
886.5302811616153
 30
0.0
 11
393.6197425060151
 21
886.4360002574571
 31
0.0
 12
393.9497256705688
 22
886.2002979970617
 32
0.0
 13
393.9497256705688
 23
886.2002979970617
 33
0.0
  0
MTEXT
  5
2FB7
330
2FB4
100
AcDbEntity
  8
0
  6
ByBlock
 62
     1
 48
10.0
100
AcDbMText
 10
393.3310072370305
 20
887.3493465164898
 30
0.0
 40
0.35
 41
0.0
 71
     5
 72
     5
  1
\A1;R2.5
 11
0.707106781186559
 21
-0.7071067811865363
 31
0.0
 73
     1
 44
1.0
  0
POINT
  5
2FB8
330
2FB4
100
AcDbEntity
  8
DEFPOINTS
  6
ByBlock
 62
     0
 48
10.0
100
AcDbPoint
 10
393.9497256705688
 20
886.2002979970617
 30
0.0
  0
POINT
  5
2FB9
330
2FB4
100
AcDbEntity
  8
DEFPOINTS
  6
ByBlock
 62
     0
 48
10.0
100
AcDbPoint
 10
392.1819587176024
 20
887.9680649500279
 30
0.0
  0
ENDBLK
  5
2FBB
330
2FB4
100
AcDbEntity
  8
0
 48
10.0
100
AcDbBlockEnd
  0
BLOCK
  5
2FC2
330
2FBC
100
AcDbEntity
  8
0
 48
10.0
100
AcDbBlockBegin
  2
*D1
 70
     1
 10
0.0
 20
0.0
 30
0.0
  3
*D1
  1

  0
LINE
  5
2FBD
330
2FBC
100
AcDbEntity
  8
0
  6
ByBlock
 62
     6
 48
10.0
100
AcDbLine
 10
392.1819587176023
 20
887.9680649500278
 30
0.0
 11
392.1819587176023
 21
885.8680649500279
 31
0.0
  0
SOLID
  5
2FBE
330
2FBC
100
AcDbEntity
  8
0
  6
ByBlock
 62
     6
 48
10.0
100
AcDbTrace
 10
392.1152920509358
 20
885.8680649500279
 30
0.0
 11
392.2486253842691
 21
885.8680649500279
 31
0.0
 12
392.1819587176024
 22
885.4680649500279
 32
0.0
 13
392.1819587176024
 23
885.4680649500279
 33
0.0
  0
MTEXT
  5
2FBF
330
2FBC
100
AcDbEntity
  8
0
  6
ByBlock
 62
     1
 48
10.0
100
AcDbMText
 10
391.7152920509358
 20
886.7180649500278
 30
0.0
 40
0.35
 41
0.0
 71
     5
 72
     5
  1
\A1;{  }
 11
0.0
 21
1.0
 31
0.0
 73
     1
 44
1.0
  0
POINT
  5
2FC0
330
2FBC
100
AcDbEntity
  8
DEFPOINTS
  6
ByBlock
 62
     0
 48
10.0
100
AcDbPoint
 10
392.1819587176024
 20
885.4680649500279
 30
0.0
  0
POINT
  5
2FC1
330
2FBC
100
AcDbEntity
  8
DEFPOINTS
  6
ByBlock
 62
     0
 48
10.0
100
AcDbPoint
 10
392.1819587176023
 20
887.9680649500278
 30
0.0
  0
ENDBLK
  5
2FC3
330
2FBC
100
AcDbEntity
  8
0
 48
10.0
100
AcDbBlockEnd
  0
BLOCK
  5
3042
330
2FC4
100
AcDbEntity
  8
0
 48
10.0
100
AcDbBlockBegin
  2
*X2
 70
     1
 10
0.0
 20
0.0
 30
0.0
  3
*X2
  1

  0
LINE
  5
2FC5
330
2FC4
100
AcDbEntity
  8
0
 62
     0
 48
10.0
100
AcDbLine
 10
347.2792944953941
 20
871.0078314761471
 30
0.0
 11
347.4042944953942
 21
871.1328314761471
 31
0.0
  0
LINE
  5
2FC6
330
2FC4
100
AcDbEntity
  8
0
 62
     0
 48
10.0
100
AcDbLine
 10
347.0098868117621
 20
871.0078314761471
 30
0.0
 11
347.1348868117622
 21
871.1328314761471
 31
0.0
  0
LINE
  5
2FC7
330
2FC4
100
AcDbEntity
  8
0
 62
     0
 48
10.0
100
AcDbLine
 10
346.7404791281301
 20
871.0078314761471
 30
0.0
 11
346.8654791281301
 21
871.1328314761471
 31
0.0
  0
LINE
  5
2FC8
330
2FC4
100
AcDbEntity
  8
0
 62
     0
 48
10.0
100
AcDbLine
 10
346.4717568563948
 20
871.0085168880439
 30
0.0
 11
346.5963025382043
 21
871.1330625698535
 31
0.0
  0
LINE
  5
2FC9
330
2FC4
100
AcDbEntity
  8
0
 62
     0
 48
10.0
100
AcDbLine
 10
346.2208844892948
 20
871.027052204576
 30
0.0
 11
346.3432027394606
 21
871.149370454742
 31
0.0
  0
LINE
  5
2FCA
330
2FC4
100
AcDbEntity
  8
0
 62
     0
 48
10.0
100
AcDbLine
 10
345.9910954861229
 20
871.0666708850363
 30
0.0
 11
346.1116467306112
 21
871.1872221295246
 31
0.0
  0
LINE
  5
2FCB
330
2FC4
100
AcDbEntity
  8
0
 62
     0
 48
10.0
100
AcDbLine
 10
345.7785496452734
 20
871.1235327278187
 30
0.0
 11
345.8976204595328
 21
871.2426035420781
 31
0.0
  0
LINE
  5
2FCC
330
2FC4
100
AcDbEntity
  8
0
 62
     0
 48
10.0
100
AcDbLine
 10
345.5807763635028
 20
871.1951671296803
 30
0.0
 11
345.6985560998011
 21
871.3129468659786
 31
0.0
  0
LINE
  5
2FCD
330
2FC4
100
AcDbEntity
  8
0
 62
     0
 48
10.0
100
AcDbLine
 10
345.3961121135697
 20
871.2799105633793
 30
0.0
 11
345.5127300561699
 21
871.3965285059796
 31
0.0
  0
LINE
  5
2FCE
330
2FC4
100
AcDbEntity
  8
0
 62
     0
 48
10.0
100
AcDbLine
 10
345.2234135570994
 20
871.376619690541
 30
0.0
 11
345.3389587534767
 21
871.4921648869182
 31
0.0
  0
LINE
  5
2FCF
330
2FC4
100
AcDbEntity
  8
0
 62
     0
 48
10.0
100
AcDbLine
 10
345.0618992984753
 20
871.484513115549
 30
0.0
 11
345.1764318044751
 21
871.5990456215488
 31
0.0
  0
LINE
  5
2FD0
330
2FC4
100
AcDbEntity
  8
0
 62
     0
 48
10.0
100
AcDbLine
 10
344.9110587242581
 20
871.6030802249639
 30
0.0
 11
345.0246161399604
 21
871.7166376406661
 31
0.0
  0
LINE
  5
2FD1
330
2FC4
100
AcDbEntity
  8
0
 62
     0
 48
10.0
100
AcDbLine
 10
344.7705995090048
 20
871.7320286933427
 30
0.0
 11
344.8832006587603
 21
871.8446298430983
 31
0.0
  0
LINE
  5
2FD2
330
2FC4
100
AcDbEntity
  8
0
 62
     0
 48
10.0
100
AcDbLine
 10
344.6358773191487
 20
871.8667141871188
 30
0.0
 11
344.7483773191488
 21
871.9792141871186
 31
0.0
  0
LINE
  5
2FD3
330
2FC4
100
AcDbEntity
  8
0
 62
     0
 48
10.0
100
AcDbLine
 10
344.5011734773327
 20
872.0014180289348
 30
0.0
 11
344.6136734773328
 21
872.1139180289348
 31
0.0
  0
LINE
  5
2FD4
330
2FC4
100
AcDbEntity
  8
0
 62
     0
 48
10.0
100
AcDbLine
 10
344.3664696355166
 20
872.1361218707508
 30
0.0
 11
344.4789696355167
 21
872.2486218707507
 31
0.0
  0
LINE
  5
2FD5
330
2FC4
100
AcDbEntity
  8
0
 62
     0
 48
10.0
100
AcDbLine
 10
344.2317657937006
 20
872.2708257125669
 30
0.0
 11
344.3442657937006
 21
872.3833257125669
 31
0.0
  0
LINE
  5
2FD6
330
2FC4
100
AcDbEntity
  8
0
 62
     0
 48
10.0
100
AcDbLine
 10
344.0970619518846
 20
872.4055295543829
 30
0.0
 11
344.2095619518846
 21
872.5180295543829
 31
0.0
  0
LINE
  5
2FD7
330
2FC4
100
AcDbEntity
  8
0
 62
     0
 48
10.0
100
AcDbLine
 10
343.9623581100685
 20
872.5402333961989
 30
0.0
 11
344.0748581100685
 21
872.6527333961989
 31
0.0
  0
LINE
  5
2FD8
330
2FC4
100
AcDbEntity
  8
0
 62
     0
 48
10.0
100
AcDbLine
 10
343.8276542682525
 20
872.6749372380149
 30
0.0
 11
343.9401542682525
 21
872.7874372380151
 31
0.0
  0
LINE
  5
2FD9
330
2FC4
100
AcDbEntity
  8
0
 62
     0
 48
10.0
100
AcDbLine
 10
343.6929504264365
 20
872.8096410798309
 30
0.0
 11
343.8054504264365
 21
872.9221410798309
 31
0.0
  0
LINE
  5
2FDA
330
2FC4
100
AcDbEntity
  8
0
 62
     0
 48
10.0
100
AcDbLine
 10
343.5582465846204
 20
872.944344921647
 30
0.0
 11
343.6707465846204
 21
873.0568449216471
 31
0.0
  0
LINE
  5
2FDB
330
2FC4
100
AcDbEntity
  8
0
 62
     0
 48
10.0
100
AcDbLine
 10
343.4235427428044
 20
873.0790487634632
 30
0.0
 11
343.5360427428044
 21
873.191548763463
 31
0.0
  0
LINE
  5
2FDC
330
2FC4
100
AcDbEntity
  8
0
 62
     0
 48
10.0
100
AcDbLine
 10
343.2888389009883
 20
873.213752605279
 30
0.0
 11
343.4013389009884
 21
873.3262526052792
 31
0.0
  0
LINE
  5
2FDD
330
2FC4
100
AcDbEntity
  8
0
 62
     0
 48
10.0
100
AcDbLine
 10
343.1541350591723
 20
873.3484564470952
 30
0.0
 11
343.2666350591723
 21
873.460956447095
 31
0.0
  0
LINE
  5
2FDE
330
2FC4
100
AcDbEntity
  8
0
 62
     0
 48
10.0
100
AcDbLine
 10
343.0094783296894
 20
873.4732074012441
 30
0.0
 11
343.1273085666795
 21
873.5910376382342
 31
0.0
  0
LINE
  5
2FDF
330
2FC4
100
AcDbEntity
  8
0
 62
     0
 48
10.0
100
AcDbLine
 10
342.8379451377171
 20
873.5710818929039
 30
0.0
 11
342.9636127569455
 21
873.6967495121325
 31
0.0
  0
LINE
  5
2FE0
330
2FC4
100
AcDbEntity
  8
0
 62
     0
 48
10.0
100
AcDbLine
 10
342.6343076586957
 20
873.6368520975148
 30
0.0
 11
342.7697531282532
 21
873.7722975670722
 31
0.0
  0
LINE
  5
2FE1
330
2FC4
100
AcDbEntity
  8
0
 62
     0
 48
10.0
100
AcDbLine
 10
342.385879353696
 20
873.6578314761471
 30
0.0
 11
342.5354326616366
 21
873.8073847840876
 31
0.0
  0
LINE
  5
2FE2
330
2FC4
100
AcDbEntity
  8
0
 62
     0
 48
10.0
100
AcDbLine
 10
342.1164716700639
 20
873.6578314761471
 30
0.0
 11
342.2664716700638
 21
873.807831476147
 31
0.0
  0
LINE
  5
2FE3
330
2FC4
100
AcDbEntity
  8
0
 62
     0
 48
10.0
100
AcDbLine
 10
341.8470639864319
 20
873.6578314761471
 30
0.0
 11
341.9970639864318
 21
873.807831476147
 31
0.0
  0
LINE
  5
2FE4
330
2FC4
100
AcDbEntity
  8
0
 62
     0
 48
10.0
100
AcDbLine
 10
341.5776563027998
 20
873.6578314761471
 30
0.0
 11
341.7276563027998
 21
873.807831476147
 31
0.0
  0
LINE
  5
2FE5
330
2FC4
100
AcDbEntity
  8
0
 62
     0
 48
10.0
100
AcDbLine
 10
341.3082486191676
 20
873.6578314761471
 30
0.0
 11
341.4582486191676
 21
873.807831476147
 31
0.0
  0
LINE
  5
2FE6
330
2FC4
100
AcDbEntity
  8
0
 62
     0
 48
10.0
100
AcDbLine
 10
341.0388409355356
 20
873.6578314761471
 30
0.0
 11
341.1888409355355
 21
873.807831476147
 31
0.0
  0
LINE
  5
2FE7
330
2FC4
100
AcDbEntity
  8
0
 62
     0
 48
10.0
100
AcDbLine
 10
340.7694332519036
 20
873.6578314761471
 30
0.0
 11
340.9194332519035
 21
873.807831476147
 31
0.0
  0
LINE
  5
2FE8
330
2FC4
100
AcDbEntity
  8
0
 62
     0
 48
10.0
100
AcDbLine
 10
340.5000255682714
 20
873.6578314761471
 30
0.0
 11
340.6500255682714
 21
873.807831476147
 31
0.0
  0
LINE
  5
2FE9
330
2FC4
100
AcDbEntity
  8
0
 62
     0
 48
10.0
100
AcDbLine
 10
340.2306178846393
 20
873.6578314761471
 30
0.0
 11
340.3806178846394
 21
873.807831476147
 31
0.0
  0
LINE
  5
2FEA
330
2FC4
100
AcDbEntity
  8
0
 62
     0
 48
10.0
100
AcDbLine
 10
339.9612102010073
 20
873.6578314761471
 30
0.0
 11
340.1112102010074
 21
873.807831476147
 31
0.0
  0
LINE
  5
2FEB
330
2FC4
100
AcDbEntity
  8
0
 62
     0
 48
10.0
100
AcDbLine
 10
339.6918025173754
 20
873.6578314761471
 30
0.0
 11
339.8418025173753
 21
873.807831476147
 31
0.0
  0
LINE
  5
2FEC
330
2FC4
100
AcDbEntity
  8
0
 62
     0
 48
10.0
100
AcDbLine
 10
339.4223948337431
 20
873.6578314761471
 30
0.0
 11
339.5723948337431
 21
873.807831476147
 31
0.0
  0
LINE
  5
2FED
330
2FC4
100
AcDbEntity
  8
0
 62
     0
 48
10.0
100
AcDbLine
 10
339.1529871501111
 20
873.6578314761471
 30
0.0
 11
339.3029871501112
 21
873.807831476147
 31
0.0
  0
LINE
  5
2FEE
330
2FC4
100
AcDbEntity
  8
0
 62
     0
 48
10.0
100
AcDbLine
 10
338.8835794664791
 20
873.6578314761471
 30
0.0
 11
339.033579466479
 21
873.807831476147
 31
0.0
  0
LINE
  5
2FEF
330
2FC4
100
AcDbEntity
  8
0
 62
     0
 48
10.0
100
AcDbLine
 10
338.6141717828469
 20
873.6578314761471
 30
0.0
 11
338.7641717828469
 21
873.807831476147
 31
0.0
  0
LINE
  5
2FF0
330
2FC4
100
AcDbEntity
  8
0
 62
     0
 48
10.0
100
AcDbLine
 10
338.3447640992149
 20
873.6578314761471
 30
0.0
 11
338.4947640992149
 21
873.807831476147
 31
0.0
  0
LINE
  5
2FF1
330
2FC4
100
AcDbEntity
  8
0
 62
     0
 48
10.0
100
AcDbLine
 10
338.0753564155828
 20
873.6578314761471
 30
0.0
 11
338.2253564155829
 21
873.807831476147
 31
0.0
  0
LINE
  5
2FF2
330
2FC4
100
AcDbEntity
  8
0
 62
     0
 48
10.0
100
AcDbLine
 10
337.8059487319507
 20
873.6578314761471
 30
0.0
 11
337.9559487319507
 21
873.807831476147
 31
0.0
  0
LINE
  5
2FF3
330
2FC4
100
AcDbEntity
  8
0
 62
     0
 48
10.0
100
AcDbLine
 10
337.5365410483186
 20
873.6578314761471
 30
0.0
 11
337.6865410483187
 21
873.807831476147
 31
0.0
  0
LINE
  5
2FF4
330
2FC4
100
AcDbEntity
  8
0
 62
     0
 48
10.0
100
AcDbLine
 10
337.2671333646866
 20
873.6578314761471
 30
0.0
 11
337.4171333646866
 21
873.807831476147
 31
0.0
  0
LINE
  5
2FF5
330
2FC4
100
AcDbEntity
  8
0
 62
     0
 48
10.0
100
AcDbLine
 10
336.9977256810545
 20
873.6578314761471
 30
0.0
 11
337.1477256810545
 21
873.807831476147
 31
0.0
  0
LINE
  5
2FF6
330
2FC4
100
AcDbEntity
  8
0
 62
     0
 48
10.0
100
AcDbLine
 10
336.7283179974224
 20
873.6578314761471
 30
0.0
 11
336.8783179974225
 21
873.807831476147
 31
0.0
  0
LINE
  5
2FF7
330
2FC4
100
AcDbEntity
  8
0
 62
     0
 48
10.0
100
AcDbLine
 10
336.4330569512067
 20
873.6319781135634
 30
0.0
 11
336.6089103137903
 21
873.807831476147
 31
0.0
  0
LINE
  5
2FF8
330
2FC4
100
AcDbEntity
  8
0
 62
     0
 48
10.0
100
AcDbLine
 10
333.9880464359984
 20
871.4563752819872
 30
0.0
 11
336.2976294717033
 21
873.765958317692
 31
0.0
  0
LINE
  5
2FF9
330
2FC4
100
AcDbEntity
  8
0
 62
     0
 48
10.0
100
AcDbLine
 10
333.4246738115345
 20
871.1624103411553
 30
0.0
 11
333.7603855853894
 21
871.4981221150104
 31
0.0
  0
LINE
  5
2FFA
330
2FC4
100
AcDbEntity
  8
0
 62
     0
 48
10.0
100
AcDbLine
 10
333.0491653842555
 20
871.0563095975086
 30
0.0
 11
333.2560846669114
 21
871.2632288801644
 31
0.0
  0
LINE
  5
2FFB
330
2FC4
100
AcDbEntity
  8
0
 62
     0
 48
10.0
100
AcDbLine
 10
332.7376550876868
 20
871.0142069845717
 30
0.0
 11
332.8944560938055
 21
871.1710079906904
 31
0.0
  0
LINE
  5
2FFC
330
2FC4
100
AcDbEntity
  8
0
 62
     0
 48
10.0
100
AcDbLine
 10
332.4618718956301
 20
871.0078314761473
 30
0.0
 11
332.5903109049358
 21
871.1362704854529
 31
0.0
  0
LINE
  5
2FFD
330
2FC4
100
AcDbEntity
  8
0
 62
     0
 48
10.0
100
AcDbLine
 10
332.1924642119981
 20
871.0078314761473
 30
0.0
 11
332.317464211998
 21
871.1328314761471
 31
0.0
  0
LINE
  5
2FFE
330
2FC4
100
AcDbEntity
  8
0
 62
     0
 48
10.0
100
AcDbLine
 10
331.923056528366
 20
871.0078314761473
 30
0.0
 11
332.0480565283659
 21
871.1328314761471
 31
0.0
  0
LINE
  5
2FFF
330
2FC4
100
AcDbEntity
  8
0
 62
     0
 48
10.0
100
AcDbLine
 10
331.6689152840879
 20
871.0230979155014
 30
0.0
 11
331.7786488447338
 21
871.1328314761471
 31
0.0
  0
LINE
  5
3000
330
2FC4
100
AcDbEntity
  8
0
 62
     0
 48
10.0
100
AcDbLine
 10
347.5487021790263
 20
871.0078314761471
 30
0.0
 11
347.6737021790263
 21
871.1328314761471
 31
0.0
  0
LINE
  5
3001
330
2FC4
100
AcDbEntity
  8
0
 62
     0
 48
10.0
100
AcDbLine
 10
347.8181098626583
 20
871.0078314761471
 30
0.0
 11
347.9431098626584
 21
871.1328314761471
 31
0.0
  0
LINE
  5
3002
330
2FC4
100
AcDbEntity
  8
0
 62
     0
 48
10.0
100
AcDbLine
 10
348.0875175462903
 20
871.0078314761471
 30
0.0
 11
348.2125175462904
 21
871.1328314761471
 31
0.0
  0
LINE
  5
3003
330
2FC4
100
AcDbEntity
  8
0
 62
     0
 48
10.0
100
AcDbLine
 10
348.3569252299225
 20
871.0078314761471
 30
0.0
 11
348.4819252299225
 21
871.1328314761471
 31
0.0
  0
LINE
  5
3004
330
2FC4
100
AcDbEntity
  8
0
 62
     0
 48
10.0
100
AcDbLine
 10
348.6263329135545
 20
871.0078314761471
 30
0.0
 11
348.7513329135546
 21
871.1328314761471
 31
0.0
  0
LINE
  5
3005
330
2FC4
100
AcDbEntity
  8
0
 62
     0
 48
10.0
100
AcDbLine
 10
348.8957405971865
 20
871.0078314761471
 30
0.0
 11
349.0207405971866
 21
871.1328314761471
 31
0.0
  0
LINE
  5
3006
330
2FC4
100
AcDbEntity
  8
0
 62
     0
 48
10.0
100
AcDbLine
 10
349.1651482808187
 20
871.0078314761469
 30
0.0
 11
349.2901482808187
 21
871.1328314761471
 31
0.0
  0
LINE
  5
3007
330
2FC4
100
AcDbEntity
  8
0
 62
     0
 48
10.0
100
AcDbLine
 10
349.4345559644507
 20
871.0078314761469
 30
0.0
 11
349.5595559644508
 21
871.1328314761471
 31
0.0
  0
LINE
  5
3008
330
2FC4
100
AcDbEntity
  8
0
 62
     0
 48
10.0
100
AcDbLine
 10
349.7039636480827
 20
871.0078314761469
 30
0.0
 11
349.8289636480827
 21
871.1328314761471
 31
0.0
  0
LINE
  5
3009
330
2FC4
100
AcDbEntity
  8
0
 62
     0
 48
10.0
100
AcDbLine
 10
349.9733713317149
 20
871.0078314761469
 30
0.0
 11
350.0983713317149
 21
871.1328314761471
 31
0.0
  0
LINE
  5
300A
330
2FC4
100
AcDbEntity
  8
0
 62
     0
 48
10.0
100
AcDbLine
 10
350.2427790153468
 20
871.0078314761469
 30
0.0
 11
350.3677790153469
 21
871.1328314761471
 31
0.0
  0
LINE
  5
300B
330
2FC4
100
AcDbEntity
  8
0
 62
     0
 48
10.0
100
AcDbLine
 10
350.5121866989789
 20
871.0078314761469
 30
0.0
 11
350.6440262740114
 21
871.1396710511793
 31
0.0
  0
LINE
  5
300C
330
2FC4
100
AcDbEntity
  8
0
 62
     0
 48
10.0
100
AcDbLine
 10
350.7925016727147
 20
871.0187387662507
 30
0.0
 11
350.9565624222913
 21
871.1827995158273
 31
0.0
  0
LINE
  5
300D
330
2FC4
100
AcDbEntity
  8
0
 62
     0
 48
10.0
100
AcDbLine
 10
351.113137886315
 20
871.069967296219
 30
0.0
 11
351.334069185443
 21
871.2908985953468
 31
0.0
  0
LINE
  5
300E
330
2FC4
100
AcDbEntity
  8
0
 62
     0
 48
10.0
100
AcDbLine
 10
351.507051256615
 20
871.194472982887
 30
0.0
 11
351.9079866067302
 21
871.595408333002
 31
0.0
  0
LINE
  5
300F
330
2FC4
100
AcDbEntity
  8
0
 62
     0
 48
10.0
100
AcDbLine
 10
352.2310806121207
 20
871.6490946547606
 30
0.0
 11
354.3657065041144
 21
873.7837205467544
 31
0.0
  0
LINE
  5
3010
330
2FC4
100
AcDbEntity
  8
0
 62
     0
 48
10.0
100
AcDbLine
 10
354.4958269478378
 20
873.6444333068455
 30
0.0
 11
354.6592251171394
 21
873.8078314761471
 31
0.0
  0
LINE
  5
3011
330
2FC4
100
AcDbEntity
  8
0
 62
     0
 48
10.0
100
AcDbLine
 10
354.7786328007715
 20
873.6578314761471
 30
0.0
 11
354.9286328007714
 21
873.8078314761471
 31
0.0
  0
LINE
  5
3012
330
2FC4
100
AcDbEntity
  8
0
 62
     0
 48
10.0
100
AcDbLine
 10
355.0480404844035
 20
873.6578314761471
 30
0.0
 11
355.1980404844035
 21
873.8078314761471
 31
0.0
  0
LINE
  5
3013
330
2FC4
100
AcDbEntity
  8
0
 62
     0
 48
10.0
100
AcDbLine
 10
355.3174481680356
 20
873.6578314761471
 30
0.0
 11
355.4674481680358
 21
873.8078314761471
 31
0.0
  0
LINE
  5
3014
330
2FC4
100
AcDbEntity
  8
0
 62
     0
 48
10.0
100
AcDbLine
 10
355.5868558516676
 20
873.6578314761471
 30
0.0
 11
355.7368558516677
 21
873.8078314761471
 31
0.0
  0
LINE
  5
3015
330
2FC4
100
AcDbEntity
  8
0
 62
     0
 48
10.0
100
AcDbLine
 10
355.8562635352996
 20
873.6578314761471
 30
0.0
 11
356.0062635352997
 21
873.8078314761471
 31
0.0
  0
LINE
  5
3016
330
2FC4
100
AcDbEntity
  8
0
 62
     0
 48
10.0
100
AcDbLine
 10
356.1256712189319
 20
873.6578314761471
 30
0.0
 11
356.2756712189319
 21
873.8078314761473
 31
0.0
  0
LINE
  5
3017
330
2FC4
100
AcDbEntity
  8
0
 62
     0
 48
10.0
100
AcDbLine
 10
356.3950789025639
 20
873.6578314761471
 30
0.0
 11
356.545078902564
 21
873.8078314761473
 31
0.0
  0
LINE
  5
3018
330
2FC4
100
AcDbEntity
  8
0
 62
     0
 48
10.0
100
AcDbLine
 10
356.664486586196
 20
873.6578314761471
 30
0.0
 11
356.814486586196
 21
873.8078314761473
 31
0.0
  0
LINE
  5
3019
330
2FC4
100
AcDbEntity
  8
0
 62
     0
 48
10.0
100
AcDbLine
 10
356.9338942698279
 20
873.6578314761471
 30
0.0
 11
357.083894269828
 21
873.8078314761473
 31
0.0
  0
LINE
  5
301A
330
2FC4
100
AcDbEntity
  8
0
 62
     0
 48
10.0
100
AcDbLine
 10
357.2033019534601
 20
873.6578314761471
 30
0.0
 11
357.3533019534601
 21
873.8078314761473
 31
0.0
  0
LINE
  5
301B
330
2FC4
100
AcDbEntity
  8
0
 62
     0
 48
10.0
100
AcDbLine
 10
357.4727096370921
 20
873.6578314761471
 30
0.0
 11
357.6227096370923
 21
873.8078314761473
 31
0.0
  0
LINE
  5
301C
330
2FC4
100
AcDbEntity
  8
0
 62
     0
 48
10.0
100
AcDbLine
 10
357.7421173207242
 20
873.6578314761471
 30
0.0
 11
357.8921173207243
 21
873.8078314761473
 31
0.0
  0
LINE
  5
301D
330
2FC4
100
AcDbEntity
  8
0
 62
     0
 48
10.0
100
AcDbLine
 10
358.0115250043563
 20
873.6578314761471
 30
0.0
 11
358.1615250043564
 21
873.8078314761473
 31
0.0
  0
LINE
  5
301E
330
2FC4
100
AcDbEntity
  8
0
 62
     0
 48
10.0
100
AcDbLine
 10
358.2809326879884
 20
873.6578314761471
 30
0.0
 11
358.4309326879885
 21
873.8078314761473
 31
0.0
  0
LINE
  5
301F
330
2FC4
100
AcDbEntity
  8
0
 62
     0
 48
10.0
100
AcDbLine
 10
358.5503403716204
 20
873.6578314761471
 30
0.0
 11
358.7003403716206
 21
873.8078314761473
 31
0.0
  0
LINE
  5
3020
330
2FC4
100
AcDbEntity
  8
0
 62
     0
 48
10.0
100
AcDbLine
 10
358.8197480552526
 20
873.6578314761471
 30
0.0
 11
358.9697480552528
 21
873.8078314761473
 31
0.0
  0
LINE
  5
3021
330
2FC4
100
AcDbEntity
  8
0
 62
     0
 48
10.0
100
AcDbLine
 10
359.0891557388847
 20
873.6578314761471
 30
0.0
 11
359.2391557388848
 21
873.8078314761473
 31
0.0
  0
LINE
  5
3022
330
2FC4
100
AcDbEntity
  8
0
 62
     0
 48
10.0
100
AcDbLine
 10
359.3585634225167
 20
873.6578314761471
 30
0.0
 11
359.5085634225168
 21
873.8078314761473
 31
0.0
  0
LINE
  5
3023
330
2FC4
100
AcDbEntity
  8
0
 62
     0
 48
10.0
100
AcDbLine
 10
359.6279711061488
 20
873.6578314761471
 30
0.0
 11
359.7779711061489
 21
873.8078314761473
 31
0.0
  0
LINE
  5
3024
330
2FC4
100
AcDbEntity
  8
0
 62
     0
 48
10.0
100
AcDbLine
 10
359.8973787897809
 20
873.6578314761471
 30
0.0
 11
360.0473787897811
 21
873.8078314761473
 31
0.0
  0
LINE
  5
3025
330
2FC4
100
AcDbEntity
  8
0
 62
     0
 48
10.0
100
AcDbLine
 10
360.1667864734129
 20
873.6578314761471
 30
0.0
 11
360.316786473413
 21
873.8078314761473
 31
0.0
  0
LINE
  5
3026
330
2FC4
100
AcDbEntity
  8
0
 62
     0
 48
10.0
100
AcDbLine
 10
360.4361782981624
 20
873.6578156172644
 30
0.0
 11
360.5831764003959
 21
873.8048137194979
 31
0.0
  0
LINE
  5
3027
330
2FC4
100
AcDbEntity
  8
0
 62
     0
 48
10.0
100
AcDbLine
 10
360.6752099066765
 20
873.6274395421464
 30
0.0
 11
360.8085813161423
 21
873.7608109516125
 31
0.0
  0
LINE
  5
3028
330
2FC4
100
AcDbEntity
  8
0
 62
     0
 48
10.0
100
AcDbLine
 10
360.8721967911711
 20
873.555018743009
 30
0.0
 11
360.9963050943654
 21
873.6791270462035
 31
0.0
  0
LINE
  5
3029
330
2FC4
100
AcDbEntity
  8
0
 62
     0
 48
10.0
100
AcDbLine
 10
361.0384375958354
 20
873.4518518640411
 30
0.0
 11
361.154902097096
 21
873.5683163653019
 31
0.0
  0
LINE
  5
302A
330
2FC4
100
AcDbEntity
  8
0
 62
     0
 48
10.0
100
AcDbLine
 10
361.1792924608467
 20
873.3232990454204
 30
0.0
 11
361.2917924608467
 21
873.4357990454206
 31
0.0
  0
LINE
  5
302B
330
2FC4
100
AcDbEntity
  8
0
 62
     0
 48
10.0
100
AcDbLine
 10
361.3139963026628
 20
873.1885952036046
 30
0.0
 11
361.4264963026628
 21
873.3010952036044
 31
0.0
  0
LINE
  5
302C
330
2FC4
100
AcDbEntity
  8
0
 62
     0
 48
10.0
100
AcDbLine
 10
361.4487001444789
 20
873.0538913617884
 30
0.0
 11
361.5612001444789
 21
873.1663913617886
 31
0.0
  0
LINE
  5
302D
330
2FC4
100
AcDbEntity
  8
0
 62
     0
 48
10.0
100
AcDbLine
 10
361.5834039862948
 20
872.9191875199726
 30
0.0
 11
361.6959039862949
 21
873.0316875199726
 31
0.0
  0
LINE
  5
302E
330
2FC4
100
AcDbEntity
  8
0
 62
     0
 48
10.0
100
AcDbLine
 10
361.7181078281109
 20
872.7844836781564
 30
0.0
 11
361.830607828111
 21
872.8969836781564
 31
0.0
  0
LINE
  5
302F
330
2FC4
100
AcDbEntity
  8
0
 62
     0
 48
10.0
100
AcDbLine
 10
361.8528116699269
 20
872.6497798363405
 30
0.0
 11
361.965311669927
 21
872.7622798363404
 31
0.0
  0
LINE
  5
3030
330
2FC4
100
AcDbEntity
  8
0
 62
     0
 48
10.0
100
AcDbLine
 10
361.987515511743
 20
872.5150759945243
 30
0.0
 11
362.100015511743
 21
872.6275759945243
 31
0.0
  0
LINE
  5
3031
330
2FC4
100
AcDbEntity
  8
0
 62
     0
 48
10.0
100
AcDbLine
 10
362.1222193535591
 20
872.3803721527083
 30
0.0
 11
362.234719353559
 21
872.4928721527083
 31
0.0
  0
LINE
  5
3032
330
2FC4
100
AcDbEntity
  8
0
 62
     0
 48
10.0
100
AcDbLine
 10
362.2569231953751
 20
872.2456683108923
 30
0.0
 11
362.369423195375
 21
872.3581683108921
 31
0.0
  0
LINE
  5
3033
330
2FC4
100
AcDbEntity
  8
0
 62
     0
 48
10.0
100
AcDbLine
 10
362.3916270371911
 20
872.1109644690763
 30
0.0
 11
362.5041270371911
 21
872.2234644690763
 31
0.0
  0
LINE
  5
3034
330
2FC4
100
AcDbEntity
  8
0
 62
     0
 48
10.0
100
AcDbLine
 10
362.5263308790072
 20
871.9762606272603
 30
0.0
 11
362.6388308790071
 21
872.0887606272601
 31
0.0
  0
LINE
  5
3035
330
2FC4
100
AcDbEntity
  8
0
 62
     0
 48
10.0
100
AcDbLine
 10
362.6610347208232
 20
871.8415567854442
 30
0.0
 11
362.7735347208231
 21
871.9540567854442
 31
0.0
  0
LINE
  5
3036
330
2FC4
100
AcDbEntity
  8
0
 62
     0
 48
10.0
100
AcDbLine
 10
362.7960505682353
 20
871.7071649492242
 30
0.0
 11
362.9088296750354
 21
871.8199440560244
 31
0.0
  0
LINE
  5
3037
330
2FC4
100
AcDbEntity
  8
0
 62
     0
 48
10.0
100
AcDbLine
 10
362.9384353914627
 20
871.5801420888196
 30
0.0
 11
363.0521729558273
 21
871.6938796531842
 31
0.0
  0
LINE
  5
3038
330
2FC4
100
AcDbEntity
  8
0
 62
     0
 48
10.0
100
AcDbLine
 10
363.0912411343673
 20
871.4635401480922
 30
0.0
 11
363.20595930506
 21
871.5782583187847
 31
0.0
  0
LINE
  5
3039
330
2FC4
100
AcDbEntity
  8
0
 62
     0
 48
10.0
100
AcDbLine
 10
363.2547981650973
 20
871.35768949519
 30
0.0
 11
363.3705383870552
 21
871.4734297171478
 31
0.0
  0
LINE
  5
303A
330
2FC4
100
AcDbEntity
  8
0
 62
     0
 48
10.0
100
AcDbLine
 10
363.4296627671403
 20
871.2631464136009
 30
0.0
 11
363.5464899059815
 21
871.3799735524419
 31
0.0
  0
LINE
  5
303B
330
2FC4
100
AcDbEntity
  8
0
 62
     0
 48
10.0
100
AcDbLine
 10
363.6166755054128
 20
871.1807514682414
 30
0.0
 11
363.7346850816616
 21
871.2987610444901
 31
0.0
  0
LINE
  5
303C
330
2FC4
100
AcDbEntity
  8
0
 62
     0
 48
10.0
100
AcDbLine
 10
363.8170621190986
 20
871.111730398295
 30
0.0
 11
363.9363927719422
 21
871.2310610511387
 31
0.0
  0
LINE
  5
303D
330
2FC4
100
AcDbEntity
  8
0
 62
     0
 48
10.0
100
AcDbLine
 10
364.0326095957096
 20
871.0578701912741
 30
0.0
 11
364.153465257148
 21
871.1787258527124
 31
0.0
  0
LINE
  5
303E
330
2FC4
100
AcDbEntity
  8
0
 62
     0
 48
10.0
100
AcDbLine
 10
364.2659892204504
 20
871.0218421323828
 30
0.0
 11
364.3886812891937
 21
871.1445342011259
 31
0.0
  0
LINE
  5
303F
330
2FC4
100
AcDbEntity
  8
0
 62
     0
 48
10.0
100
AcDbLine
 10
364.5214020609853
 20
871.0078472892856
 30
0.0
 11
364.6463862478468
 21
871.1328314761471
 31
0.0
  0
LINE
  5
3040
330
2FC4
100
AcDbEntity
  8
0
 62
     0
 48
10.0
100
AcDbLine
 10
364.790793931479
 20
871.0078314761473
 30
0.0
 11
364.9157939314788
 21
871.1328314761471
 31
0.0
  0
LINE
  5
3041
330
2FC4
100
AcDbEntity
  8
0
 62
     0
 48
10.0
100
AcDbLine
 10
365.0602016151111
 20
871.0078314761473
 30
0.0
 11
365.1852016151109
 21
871.1328314761471
 31
0.0
  0
ENDBLK
  5
3043
330
2FC4
100
AcDbEntity
  8
0
 48
10.0
100
AcDbBlockEnd
  0
BLOCK
  5
308B
330
3046
100
AcDbEntity
  8
0
100
AcDbBlockBegin
  2
A$C83A1
 70
     0
 10
0.0
 20
0.0
 30
0.0
  3
A$C83A1
  1

  0
INSERT
  5
3047
330
3046
100
AcDbEntity
  8
06-SCHRAFFUR
 48
10.0
100
AcDbBlockReference
  2
*X2
 10
-331.6532879732401
 20
-866.1752566343082
 30
0.0
1001
ACAD
1000
HATCH
1002
{
1070
    19
1000
ANSI31
1040
0.06
1040
0.0
1000
ASC_BOUNDS
1070
     1
1070
     2
1070
    36
1005
307B
1005
304C
1005
306C
1005
306D
1005
3072
1005
3073
1005
3067
1005
3068
1005
3080
1005
3081
1005
3075
1005
3076
1005
3077
1005
3078
1005
3058
1005
3059
1005
3082
1005
3083
1005
305D
1005
305E
1005
305F
1005
3060
1005
3061
1005
3062
1005
305A
1005
305B
1005
3050
1005
3051
1005
304A
1005
304B
1005
3052
1005
3053
1005
3048
1005
3049
1005
304D
1005
304E
1000
ASC_SEEDPOINT
1011
15.68850652215405
1021
4.895074841839004
1031
0.0
1002
}
  0
LINE
  5
3048
330
3046
100
AcDbEntity
  8
03-KONTUR1
 48
10.0
100
AcDbLine
 10
4.930685619253438
 20
7.632574841838959
 30
0.0
 11
10.85225849450699
 21
7.632574841838845
 31
0.0
1001
ACAD
1000
ASC_BOUNDS
1002
{
1070
    19
1005
3047
1002
}
  0
LINE
  5
3049
330
3046
100
AcDbEntity
  8
03-KONTUR1
 48
10.0
100
AcDbLine
 10
5.005685619253483
 20
7.482574841838868
 30
0.0
 11
10.77725849450695
 21
7.482574841838868
 31
0.0
1001
ACAD
1000
ASC_BOUNDS
1002
{
1070
    19
1005
3047
1002
}
  0
ARC
  5
304A
330
3046
100
AcDbEntity
  8
03-KONTUR1
 48
10.0
100
AcDbCircle
 10
0.8059381509476679
 20
7.457574841839004
 30
0.0
 40
2.5
100
AcDbArc
 50
270.000000000003
 51
315.0
1001
ACAD
1000
ASC_BOUNDS
1002
{
1070
    19
1005
3047
1002
}
  0
ARC
  5
304B
330
3046
100
AcDbEntity
  8
03-KONTUR1
 48
10.0
100
AcDbCircle
 10
0.9059381509476907
 20
7.332574841839004
 30
0.0
 40
2.5
100
AcDbArc
 50
270.0000000000029
 51
315.0
1001
ACAD
1000
ASC_BOUNDS
1002
{
1070
    19
1005
3047
1002
}
  0
LINE
  5
304C
330
3046
100
AcDbEntity
  8
06-SCHRAFFUR
 48
10.0
100
AcDbLine
 10
0.0156273108478331
 20
4.957574841838891
 30
0.0
 11
0.0156273108478331
 21
4.832574841838891
 31
0.0
1001
ACAD
1000
ASC_BOUNDS
1002
{
1070
    19
1005
3047
1002
}
  0
LINE
  5
304D
330
3046
100
AcDbEntity
  8
03-KONTUR1
 48
10.0
100
AcDbLine
 10
0.0156273108478331
 20
4.957574841838891
 30
0.0
 11
0.8059381509477816
 21
4.957574841839004
 31
0.0
1001
ACAD
1000
ASC_BOUNDS
1002
{
1070
    19
1005
3047
1002
}
  0
LINE
  5
304E
330
3046
100
AcDbEntity
  8
03-KONTUR1
 48
10.0
100
AcDbLine
 10
0.0156273108478331
 20
4.832574841838891
 30
0.0
 11
0.9059381509478043
 21
4.832574841839004
 31
0.0
1001
ACAD
1000
ASC_BOUNDS
1002
{
1070
    19
1005
3047
1002
}
  0
CIRCLE
  5
304F
330
3046
100
AcDbEntity
  8
05-MITTELLINIEN
 48
10.0
100
AcDbCircle
 10
1.941472056880286
 20
4.832574841838891
 30
0.0
 40
0.0993777147866126
  0
ARC
  5
3050
330
3046
100
AcDbEntity
  8
03-KONTUR1
 48
10.0
100
AcDbCircle
 10
4.930685619253438
 20
6.632574841838959
 30
0.0
 40
1.0
100
AcDbArc
 50
90.0
 51
135.0
1001
ACAD
1000
ASC_BOUNDS
1002
{
1070
    19
1005
3047
1002
}
  0
ARC
  5
3051
330
3046
100
AcDbEntity
  8
03-KONTUR1
 48
10.0
100
AcDbCircle
 10
5.005685619253483
 20
6.482574841838868
 30
0.0
 40
1.0
100
AcDbArc
 50
90.0
 51
135.0
1001
ACAD
1000
ASC_BOUNDS
1002
{
1070
    19
1005
3047
1002
}
  0
LINE
  5
3052
330
3046
100
AcDbEntity
  8
03-KONTUR1
 48
10.0
100
AcDbLine
 10
2.573705103914051
 20
5.689807888872678
 30
0.0
 11
4.223578838066885
 21
7.339681623025512
 31
0.0
1001
ACAD
1000
ASC_BOUNDS
1002
{
1070
    19
1005
3047
1002
}
  0
LINE
  5
3053
330
3046
100
AcDbEntity
  8
03-KONTUR1
 48
10.0
100
AcDbLine
 10
2.673705103914073
 20
5.564807888872678
 30
0.0
 11
4.29857883806693
 21
7.189681623025421
 31
0.0
1001
ACAD
1000
ASC_BOUNDS
1002
{
1070
    19
1005
3047
1002
}
  0
LINE
  5
3054
330
3046
100
AcDbEntity
  8
05-MITTELLINIEN
 48
10.0
100
AcDbLine
 10
1.45605612235812
 20
4.832574841839004
 30
0.0
 11
1.941472056880286
 21
4.832574841838891
 31
0.0
  0
LINE
  5
3055
330
3046
100
AcDbEntity
  8
05-MITTELLINIEN
 48
10.0
100
AcDbLine
 10
1.941472056880286
 20
4.832574841838891
 30
0.0
 11
2.232586372733806
 21
5.12368915769241
 31
0.0
  0
LINE
  5
3056
330
3046
100
AcDbEntity
  8
05-MITTELLINIEN
 48
0.4
100
AcDbLine
 10
1.941472056880229
 20
6.381008529282439
 30
0.0
 11
1.941472056880229
 21
3.378083366377609
 31
0.0
  0
LINE
  5
3057
330
3046
100
AcDbEntity
  8
05-MITTELLINIEN
 48
0.4
100
AcDbLine
 10
7.891472056880218
 20
8.998191073125667
 30
0.0
 11
7.891472056880218
 21
5.995265910220837
 31
0.0
  0
LINE
  5
3058
330
3046
100
AcDbEntity
  8
03-KONTUR1
 48
10.0
100
AcDbLine
 10
28.852258494507
 20
7.632574841838959
 30
0.0
 11
22.93068561925343
 21
7.632574841838845
 31
0.0
1001
ACAD
1000
ASC_BOUNDS
1002
{
1070
    19
1005
3047
1002
}
  0
LINE
  5
3059
330
3046
100
AcDbEntity
  8
03-KONTUR1
 48
10.0
100
AcDbLine
 10
28.77725849450695
 20
7.482574841838868
 30
0.0
 11
23.00568561925348
 21
7.482574841838868
 31
0.0
1001
ACAD
1000
ASC_BOUNDS
1002
{
1070
    19
1005
3047
1002
}
  0
LINE
  5
305A
330
3046
100
AcDbEntity
  8
03-KONTUR1
 48
10.0
100
AcDbLine
 10
18.90593815094757
 20
4.832574841838777
 30
0.0
 11
14.87700596281263
 21
4.832574841839004
 31
0.0
1001
ACAD
1000
ASC_BOUNDS
1002
{
1070
    19
1005
3047
1002
}
  0
LINE
  5
305B
330
3046
100
AcDbEntity
  8
03-KONTUR1
 48
10.0
100
AcDbLine
 10
18.80593815094749
 20
4.957574841838777
 30
0.0
 11
14.97700596281265
 21
4.957574841839004
 31
0.0
1001
ACAD
1000
ASC_BOUNDS
1002
{
1070
    19
1005
3047
1002
}
  0
LINE
  5
305C
330
3046
100
AcDbEntity
  8
05-MITTELLINIEN
 48
10.0
100
AcDbLine
 10
13.84147205688015
 20
4.832574841838891
 30
0.0
 11
13.55035774102663
 21
5.12368915769241
 31
0.0
  0
ARC
  5
305D
330
3046
100
AcDbEntity
  8
03-KONTUR1
 48
10.0
100
AcDbCircle
 10
14.87700596281274
 20
7.332574841839004
 30
0.0
 40
2.5
100
AcDbArc
 50
225.0
 51
269.999999999997
1001
ACAD
1000
ASC_BOUNDS
1002
{
1070
    19
1005
3047
1002
}
  0
ARC
  5
305E
330
3046
100
AcDbEntity
  8
03-KONTUR1
 48
10.0
100
AcDbCircle
 10
14.97700596281276
 20
7.457574841839004
 30
0.0
 40
2.5
100
AcDbArc
 50
225.0
 51
269.9999999999969
1001
ACAD
1000
ASC_BOUNDS
1002
{
1070
    19
1005
3047
1002
}
  0
LINE
  5
305F
330
3046
100
AcDbEntity
  8
03-KONTUR1
 48
10.0
100
AcDbLine
 10
13.10923900984636
 20
5.564807888872678
 30
0.0
 11
11.4843652756935
 21
7.189681623025421
 31
0.0
1001
ACAD
1000
ASC_BOUNDS
1002
{
1070
    19
1005
3047
1002
}
  0
LINE
  5
3060
330
3046
100
AcDbEntity
  8
03-KONTUR1
 48
10.0
100
AcDbLine
 10
13.20923900984638
 20
5.689807888872678
 30
0.0
 11
11.55936527569355
 21
7.339681623025512
 31
0.0
1001
ACAD
1000
ASC_BOUNDS
1002
{
1070
    19
1005
3047
1002
}
  0
ARC
  5
3061
330
3046
100
AcDbEntity
  8
03-KONTUR1
 48
10.0
100
AcDbCircle
 10
10.77725849450695
 20
6.482574841838868
 30
0.0
 40
1.0
100
AcDbArc
 50
45.0
 51
90.0
1001
ACAD
1000
ASC_BOUNDS
1002
{
1070
    19
1005
3047
1002
}
  0
ARC
  5
3062
330
3046
100
AcDbEntity
  8
03-KONTUR1
 48
10.0
100
AcDbCircle
 10
10.85225849450699
 20
6.632574841838959
 30
0.0
 40
1.0
100
AcDbArc
 50
45.0
 51
90.0
1001
ACAD
1000
ASC_BOUNDS
1002
{
1070
    19
1005
3047
1002
}
  0
CIRCLE
  5
3063
330
3046
100
AcDbEntity
  8
05-MITTELLINIEN
 48
10.0
100
AcDbCircle
 10
13.84147205688015
 20
4.832574841838891
 30
0.0
 40
0.0993777147866126
  0
LINE
  5
3064
330
3046
100
AcDbEntity
  8
05-MITTELLINIEN
 48
10.0
100
AcDbLine
 10
14.32688799140231
 20
4.832574841839004
 30
0.0
 11
13.84147205688015
 21
4.832574841838891
 31
0.0
  0
LINE
  5
3065
330
3046
100
AcDbEntity
  8
05-MITTELLINIEN
 48
0.4
100
AcDbLine
 10
16.89147205688021
 20
6.381008529282439
 30
0.0
 11
16.89147205688021
 21
3.378083366377609
 31
0.0
  0
LINE
  5
3066
330
3046
100
AcDbEntity
  8
05-MITTELLINIEN
 48
0.4
100
AcDbLine
 10
13.8414720568802
 20
6.381008529282439
 30
0.0
 11
13.8414720568802
 21
3.378083366377609
 31
0.0
  0
LINE
  5
3067
330
3046
100
AcDbEntity
  8
03-KONTUR1
 48
10.0
100
AcDbLine
 10
20.57370510391405
 20
5.689807888872678
 30
0.0
 11
22.22357883806688
 21
7.339681623025512
 31
0.0
1001
ACAD
1000
ASC_BOUNDS
1002
{
1070
    19
1005
3047
1002
}
  0
LINE
  5
3068
330
3046
100
AcDbEntity
  8
03-KONTUR1
 48
10.0
100
AcDbLine
 10
20.67370510391407
 20
5.564807888872678
 30
0.0
 11
22.29857883806693
 21
7.189681623025421
 31
0.0
1001
ACAD
1000
ASC_BOUNDS
1002
{
1070
    19
1005
3047
1002
}
  0
DIMENSION
  5
3069
330
3046
100
AcDbEntity
  8
10-BEM-VORDER
 48
10.0
100
AcDbDimension
  2
*D1
 10
18.80593815094766
 20
7.457574841839004
 30
0.0
 11
18.33927148428114
 21
6.207574841839004
 31
0.0
 12
-373.3760205666547
 22
-880.5104901081888
 32
0.0
 70
     4
  1
{  }
 71
     5
 42
-1.0
  3
STANDARD
100
AcDbRadialDimension
 15
18.80593815094778
 25
4.957574841839004
 35
0.0
 40
0.0
1001
ACAD
1000
DSTYLE
1002
{
1070
    78
1070
     0
1070
   140
1040
0.35
1070
   172
1070
     1
1070
   147
1040
0.2
1070
   271
1070
     1
1070
   178
1070
     1
1070
   177
1070
     6
1070
   176
1070
     6
1070
    41
1040
0.4
1002
}
  0
DIMENSION
  5
306A
330
3046
100
AcDbEntity
  8
10-BEM-VORDER
 48
10.0
100
AcDbDimension
  2
*D0
 10
18.80593815094778
 20
7.457574841839118
 30
0.0
 11
19.95498667037588
 21
6.838856408301012
 31
0.0
 12
-373.3760205666547
 22
-880.5104901081888
 32
0.0
 70
     4
 71
     5
 42
-1.0
  3
STANDARD
100
AcDbRadialDimension
 15
20.57370510391416
 25
5.689807888872792
 35
0.0
 40
0.0
1001
ACAD
1000
DSTYLE
1002
{
1070
    78
1070
     0
1070
   140
1040
0.35
1070
   172
1070
     1
1070
   147
1040
0.2
1070
   271
1070
     1
1070
   178
1070
     1
1070
   177
1070
     6
1070
   176
1070
     6
1070
    41
1040
0.4
1002
}
  0
CIRCLE
  5
306B
330
3046
100
AcDbEntity
  8
05-MITTELLINIEN
 48
10.0
100
AcDbCircle
 10
19.94147205688028
 20
4.832574841838891
 30
0.0
 40
0.0993777147866126
  0
ARC
  5
306C
330
3046
100
AcDbEntity
  8
03-KONTUR1
 48
10.0
100
AcDbCircle
 10
18.80593815094766
 20
7.457574841839004
 30
0.0
 40
2.5
100
AcDbArc
 50
270.000000000003
 51
315.0
1001
ACAD
1000
ASC_BOUNDS
1002
{
1070
    19
1005
3047
1002
}
  0
ARC
  5
306D
330
3046
100
AcDbEntity
  8
03-KONTUR1
 48
10.0
100
AcDbCircle
 10
18.90593815094769
 20
7.332574841839004
 30
0.0
 40
2.5
100
AcDbArc
 50
270.0000000000029
 51
315.0
1001
ACAD
1000
ASC_BOUNDS
1002
{
1070
    19
1005
3047
1002
}
  0
LINE
  5
306E
330
3046
100
AcDbEntity
  8
05-MITTELLINIEN
 48
10.0
100
AcDbLine
 10
19.94147205688028
 20
4.832574841838891
 30
0.0
 11
20.2325863727338
 21
5.12368915769241
 31
0.0
  0
LINE
  5
306F
330
3046
100
AcDbEntity
  8
05-MITTELLINIEN
 48
10.0
100
AcDbLine
 10
19.45605612235812
 20
4.832574841839004
 30
0.0
 11
19.94147205688028
 21
4.832574841838891
 31
0.0
  0
LINE
  5
3070
330
3046
100
AcDbEntity
  8
05-MITTELLINIEN
 48
0.4
100
AcDbLine
 10
19.94147205688022
 20
6.381008529282439
 30
0.0
 11
19.94147205688022
 21
3.378083366377609
 31
0.0
  0
SOLID
  5
3071
330
3046
100
AcDbEntity
  8
10-BEM-VORDER
  6
ByBlock
 62
     6
 48
10.0
100
AcDbTrace
 10
18.05670325424875
 20
4.37829477723892
 30
0.0
 11
18.19003658758208
 21
4.37829477723892
 31
0.0
 12
18.12336992091542
 22
4.778294777238897
 32
0.0
 13
18.12336992091542
 23
4.778294777238897
 33
0.0
  0
ARC
  5
3072
330
3046
100
AcDbEntity
  8
03-KONTUR1
 48
10.0
100
AcDbCircle
 10
22.93068561925343
 20
6.632574841838959
 30
0.0
 40
1.0
100
AcDbArc
 50
90.0
 51
135.0
1001
ACAD
1000
ASC_BOUNDS
1002
{
1070
    19
1005
3047
1002
}
  0
ARC
  5
3073
330
3046
100
AcDbEntity
  8
03-KONTUR1
 48
10.0
100
AcDbCircle
 10
23.00568561925348
 20
6.482574841838868
 30
0.0
 40
1.0
100
AcDbArc
 50
90.0
 51
135.0
1001
ACAD
1000
ASC_BOUNDS
1002
{
1070
    19
1005
3047
1002
}
  0
LINE
  5
3074
330
3046
100
AcDbEntity
  8
05-MITTELLINIEN
 48
0.4
100
AcDbLine
 10
25.89147205688021
 20
8.998191073125667
 30
0.0
 11
25.89147205688021
 21
5.995265910220837
 31
0.0
  0
LINE
  5
3075
330
3046
100
AcDbEntity
  8
03-KONTUR1
 48
10.0
100
AcDbLine
 10
31.10923900984636
 20
5.564807888872678
 30
0.0
 11
29.4843652756935
 21
7.189681623025421
 31
0.0
1001
ACAD
1000
ASC_BOUNDS
1002
{
1070
    19
1005
3047
1002
}
  0
LINE
  5
3076
330
3046
100
AcDbEntity
  8
03-KONTUR1
 48
10.0
100
AcDbLine
 10
31.20923900984638
 20
5.689807888872678
 30
0.0
 11
29.55936527569355
 21
7.339681623025512
 31
0.0
1001
ACAD
1000
ASC_BOUNDS
1002
{
1070
    19
1005
3047
1002
}
  0
ARC
  5
3077
330
3046
100
AcDbEntity
  8
03-KONTUR1
 48
10.0
100
AcDbCircle
 10
28.77725849450695
 20
6.482574841838868
 30
0.0
 40
1.0
100
AcDbArc
 50
45.0
 51
90.0
1001
ACAD
1000
ASC_BOUNDS
1002
{
1070
    19
1005
3047
1002
}
  0
ARC
  5
3078
330
3046
100
AcDbEntity
  8
03-KONTUR1
 48
10.0
100
AcDbCircle
 10
28.852258494507
 20
6.632574841838959
 30
0.0
 40
1.0
100
AcDbArc
 50
45.0
 51
90.0
1001
ACAD
1000
ASC_BOUNDS
1002
{
1070
    19
1005
3047
1002
}
  0
SOLID
  5
3079
330
3046
100
AcDbEntity
  8
10-BEM-VORDER
  6
ByBlock
 62
     6
 48
10.0
100
AcDbTrace
 10
27.52146924451324
 20
7.056037948928974
 30
0.0
 11
27.65480257784656
 21
7.056037948928974
 31
0.0
 12
27.5881359111799
 22
7.456037948928951
 32
0.0
 13
27.5881359111799
 23
7.456037948928951
 33
0.0
  0
MTEXT
  5
307A
330
3046
100
AcDbEntity
  8
10-BEM-VORDER
  6
ByBlock
 48
10.0
100
AcDbMText
 10
26.87110345588968
 20
4.242675691848376
 30
0.0
 40
0.3
 41
0.0
 71
     5
 72
     5
  1
{+0.30}
 11
0.0000000000000002
 21
1.0
 31
0.0
 73
     1
 44
1.0
  0
LINE
  5
307B
330
3046
100
AcDbEntity
  8
06-SCHRAFFUR
 48
10.0
100
AcDbLine
 10
33.66740454508903
 20
4.832574841838891
 30
0.0
 11
33.66740454508903
 21
4.957574841838891
 31
0.0
1001
ACAD
1000
ASC_BOUNDS
1002
{
1070
    19
1005
3047
1002
}
  0
CIRCLE
  5
307C
330
3046
100
AcDbEntity
  8
05-MITTELLINIEN
 48
10.0
100
AcDbCircle
 10
31.84147205688015
 20
4.832574841838891
 30
0.0
 40
0.0993777147866126
  0
LINE
  5
307D
330
3046
100
AcDbEntity
  8
05-MITTELLINIEN
 48
0.4
100
AcDbLine
 10
31.8414720568802
 20
6.381008529282439
 30
0.0
 11
31.8414720568802
 21
3.378083366377609
 31
0.0
  0
LINE
  5
307E
330
3046
100
AcDbEntity
  8
05-MITTELLINIEN
 48
10.0
100
AcDbLine
 10
32.32688799140231
 20
4.832574841839004
 30
0.0
 11
31.84147205688015
 21
4.832574841838891
 31
0.0
  0
LINE
  5
307F
330
3046
100
AcDbEntity
  8
05-MITTELLINIEN
 48
10.0
100
AcDbLine
 10
31.84147205688015
 20
4.832574841838891
 30
0.0
 11
31.55035774102663
 21
5.12368915769241
 31
0.0
  0
ARC
  5
3080
330
3046
100
AcDbEntity
  8
03-KONTUR1
 48
10.0
100
AcDbCircle
 10
32.87700596281274
 20
7.332574841839004
 30
0.0
 40
2.5
100
AcDbArc
 50
225.0
 51
269.999999999997
1001
ACAD
1000
ASC_BOUNDS
1002
{
1070
    19
1005
3047
1002
}
  0
ARC
  5
3081
330
3046
100
AcDbEntity
  8
03-KONTUR1
 48
10.0
100
AcDbCircle
 10
32.97700596281277
 20
7.457574841839004
 30
0.0
 40
2.5
100
AcDbArc
 50
225.0
 51
269.9999999999969
1001
ACAD
1000
ASC_BOUNDS
1002
{
1070
    19
1005
3047
1002
}
  0
LINE
  5
3082
330
3046
100
AcDbEntity
  8
03-KONTUR1
 48
10.0
100
AcDbLine
 10
33.66740454508903
 20
4.832574841838891
 30
0.0
 11
32.87700596281263
 21
4.832574841839004
 31
0.0
1001
ACAD
1000
ASC_BOUNDS
1002
{
1070
    19
1005
3047
1002
}
  0
LINE
  5
3083
330
3046
100
AcDbEntity
  8
03-KONTUR1
 48
10.0
100
AcDbLine
 10
33.66740454508903
 20
4.957574841838891
 30
0.0
 11
32.97700596281265
 21
4.957574841839004
 31
0.0
1001
ACAD
1000
ASC_BOUNDS
1002
{
1070
    19
1005
3047
1002
}
  0
LINE
  5
3084
330
3046
100
AcDbEntity
  8
10-BEM-VORDER
  6
ByBlock
 62
     6
 48
10.0
100
AcDbLine
 10
27.5881359111799
 20
7.056037948928974
 30
0.0
 11
27.5881359111799
 21
2.190369856165261
 31
0.0
  0
MTEXT
  5
3085
330
3046
100
AcDbEntity
  8
10-BEM-VORDER
  6
ByBlock
 48
10.0
100
AcDbMText
 10
27.02441564900914
 20
2.883361950352309
 30
0.0
 40
0.35
 41
0.0
 71
     5
 72
     5
  1
{%%c40.90}
 11
0.0000000000000002
 21
1.0
 31
0.0
 73
     1
 44
1.0
  0
LINE
  5
3086
330
3046
100
AcDbEntity
  8
10-BEM-VORDER
 48
10.0
100
AcDbLine
 10
27.35590900205676
 20
2.21288771395632
 30
0.0
 11
27.35590900205676
 21
3.598547442630774
 31
0.0
  0
MTEXT
  5
3087
330
3046
100
AcDbEntity
  8
10-BEM-VORDER
  6
ByBlock
 48
10.0
100
AcDbMText
 10
17.47593573253993
 20
2.180170523990113
 30
0.0
 40
0.3
 41
0.0
 71
     5
 72
     5
  1
{+0.25}
 11
0.0000000000000002
 21
1.0
 31
0.0
 73
     1
 44
1.0
  0
MTEXT
  5
3088
330
3046
100
AcDbEntity
  8
10-BEM-VORDER
  6
ByBlock
 48
10.0
100
AcDbMText
 10
17.60393076270963
 20
0.7480509578956572
 30
0.0
 40
0.35
 41
0.0
 71
     5
 72
     5
  1
{%%c35.60}
 11
0.0000000000000002
 21
1.0
 31
0.0
 73
     1
 44
1.0
  0
LINE
  5
3089
330
3046
100
AcDbEntity
  8
10-BEM-VORDER
  6
ByBlock
 62
     6
 48
10.0
100
AcDbLine
 10
18.12336992091542
 20
4.37829477723892
 30
0.0
 11
18.12336992091542
 21
0.0450623650176567
 31
0.0
  0
LINE
  5
308A
330
3046
100
AcDbEntity
  8
10-BEM-VORDER
 48
10.0
100
AcDbLine
 10
17.93836996023009
 20
0.0645612568607703
 30
0.0
 11
17.93836996023009
 21
1.47529883401603
 31
0.0
  0
ENDBLK
  5
308C
330
3046
100
AcDbEntity
  8
0
100
AcDbBlockEnd
  0
BLOCK
  5
3195
330
3190
100
AcDbEntity
  8
0
100
AcDbBlockBegin
  2
A
 70
     0
 10
0.0
 20
0.0
 30
0.0
  3
A
  1

  0
LINE
  5
3191
330
3190
100
AcDbEntity
  8
09-INDIZEES
 62
     6
 48
10.0
100
AcDbLine
 10
3.454424660843073
 20
0.0
 30
0.0
 11
-3.454424660843187
 21
0.0
 31
0.0
  0
LINE
  5
3192
330
3190
100
AcDbEntity
  8
09-INDIZEES
 62
     6
 48
10.0
100
AcDbLine
 10
3.454424660843073
 20
0.0
 30
0.0
 11
-0.0000000000002274
 21
6.913801590111916
 31
0.0
  0
LINE
  5
3193
330
3190
100
AcDbEntity
  8
09-INDIZEES
 62
     6
 48
10.0
100
AcDbLine
 10
-0.0000000000002274
 20
6.913801590111916
 30
0.0
 11
-3.454424660843187
 21
0.0
 31
0.0
  0
MTEXT
  5
3194
330
3190
100
AcDbEntity
  8
09-INDIZEES
  6
ByBlock
 62
     1
 48
10.0
100
AcDbMText
 10
-0.1249700480950651
 20
2.9110834848791
 30
0.0
 40
3.75
 41
0.0
 71
     5
 72
     5
  1
{a}
 73
     1
 44
1.0
  0
ENDBLK
  5
3196
330
3190
100
AcDbEntity
  8
0
100
AcDbBlockEnd
  0
BLOCK
  5
31B3
330
31A9
100
AcDbEntity
  8
0
100
AcDbBlockBegin
  2
Adresse
 70
     0
 10
0.0
 20
0.0
 30
0.0
  3
Adresse
  1

  0
TEXT
  5
31AA
330
31A9
100
AcDbEntity
  8
02-SCHRIFTKOPF
 62
     6
 48
1.5
100
AcDbText
 10
822.5884360574356
 20
-74.21208536970673
 30
0.0
 40
1.8
  1
e-mail
100
AcDbText
  0
TEXT
  5
31AB
330
31A9
100
AcDbEntity
  8
02-SCHRIFTKOPF
 62
     6
 48
1.5
100
AcDbText
 10
822.5565317960089
 20
-70.4679584817205
 30
0.0
 40
1.8
  1
Fax.
100
AcDbText
  0
TEXT
  5
31AC
330
31A9
100
AcDbEntity
  8
02-SCHRIFTKOPF
 62
     6
 48
1.5
100
AcDbText
 10
822.5884360574356
 20
-65.89663912540763
 30
0.0
 40
1.8
  1
Tel.
100
AcDbText
  0
TEXT
  5
31AD
330
31A9
100
AcDbEntity
  8
02-SCHRIFTKOPF
 62
     6
 48
1.5
100
AcDbText
 10
822.5965191984011
 20
-58.19448572491032
 30
0.0
 40
2.0
  1
Stahlwerk Annahütte Systemtechnik GmbH
 41
0.7
100
AcDbText
  0
TEXT
  5
31AE
330
31A9
100
AcDbEntity
  8
02-SCHRIFTKOPF
 62
     6
 48
1.5
100
AcDbText
 10
822.7422992237942
 20
-61.74317405985309
 30
0.0
 40
1.8
  1
D-83404 Hammerau
 41
0.8
100
AcDbText
  0
TEXT
  5
31AF
330
31A9
100
AcDbEntity
  8
02-SCHRIFTKOPF
 62
     6
 48
1.5
100
AcDbText
 10
836.2715555495903
 20
-65.89663912540763
 30
0.0
 40
1.8
  1
+49/(0)86 54-487-0
 41
0.9
100
AcDbText
  0
TEXT
  5
31B0
330
31A9
100
AcDbEntity
  8
02-SCHRIFTKOPF
 62
     6
 48
1.5
100
AcDbText
 10
836.2777794449742
 20
-70.31381295013133
 30
0.0
 40
1.8
  1
+49/(0)86 54-487-960
 41
0.9
100
AcDbText
  0
TEXT
  5
31B1
330
31A9
100
AcDbEntity
  8
02-SCHRIFTKOPF
 62
     6
 48
1.5
100
AcDbText
 10
835.4801734066787
 20
-74.21208536970673
 30
0.0
 40
1.8
  1
stahlwerk@annahuette.com
 41
0.9
100
AcDbText
  0
TEXT
  5
31B2
330
31A9
100
AcDbEntity
  8
02-SCHRIFTKOPF
 62
     6
 48
1.5
100
AcDbText
 10
835.4801734066787
 20
-77.43336069685844
 30
0.0
 40
1.8
  1
www.annahuette.com
 41
0.9
100
AcDbText
  0
ENDBLK
  5
31B4
330
31A9
100
AcDbEntity
  8
0
100
AcDbBlockEnd
  0
BLOCK
  5
31D4
330
31BB
100
AcDbEntity
  8
0
100
AcDbBlockBegin
  2
STABMATERIAL
 70
     0
 10
0.0
 20
0.0
 30
0.0
  3
STABMATERIAL
  1

  0
TEXT
  5
31BC
330
31BB
100
AcDbEntity
  8
10-TEXT25
 48
10.0
100
AcDbText
 10
47.78842501891904
 20
53.64560262383786
 30
0.0
 40
2.5
  1
bzw. nach Zeichnungsangabe
 41
0.8
 11
47.78842501891904
 21
52.81226929050453
 31
0.0
100
AcDbText
 73
     1
  0
TEXT
  5
31BD
330
31BB
100
AcDbEntity
  8
10-TEXT25
 48
10.0
100
AcDbText
 10
47.78842501891904
 20
61.6781672521294
 30
0.0
 40
2.5
  1
nach DIN ISO 2768-1 Klasse c
 41
0.8
 11
47.78842501891904
 21
60.84483391879607
 31
0.0
100
AcDbText
 73
     1
  0
TEXT
  5
31BE
330
31BB
100
AcDbEntity
  8
10-TEXT25
 48
10.0
100
AcDbText
 10
56.8713709220317
 20
57.60953260209401
 30
0.0
 40
2.5
  1
DIN ISO 2768-2 Klasse L
 41
0.8
 11
56.8713709220317
 21
56.77619926876068
 31
0.0
100
AcDbText
 73
     1
  0
TEXT
  5
31BF
330
31BB
100
AcDbEntity
  8
10-TEXT25
 48
10.0
100
AcDbText
 10
61.05293601863934
 20
26.09086299059796
 30
0.0
 40
2.5
  1
DIN ISO 2768-2 class L
 41
0.8
 11
61.05293601863934
 21
25.25752965726463
 31
0.0
100
AcDbText
 73
     1
  0
TEXT
  5
31C0
330
31BB
100
AcDbEntity
  8
10-TEXT25
 48
10.0
100
AcDbText
 10
47.91879578757391
 20
30.00682809499536
 30
0.0
 40
2.5
  1
acc. to DIN ISO 2768-1 class c
 41
0.8
 11
47.91879578757391
 21
29.17349476166203
 31
0.0
100
AcDbText
 73
     1
  0
TEXT
  5
31C1
330
31BB
100
AcDbEntity
  8
10-TEXT25
 48
10.0
100
AcDbText
 10
47.91879722290457
 20
22.07862588288238
 30
0.0
 40
2.5
  1
and/or acc. to drawing data
 41
0.8
 11
47.91879722290457
 21
21.24529254954905
 31
0.0
100
AcDbText
 73
     1
  0
TEXT
  5
31C2
330
31BB
100
AcDbEntity
  8
10-TEXT25
 48
10.0
100
AcDbText
 10
47.78905873938913
 20
17.90019502925197
 30
0.0
 40
2.5
  1
R 2,0
 41
0.8
 11
47.78905873938913
 21
17.06686169591864
 31
0.0
100
AcDbText
 73
     1
  0
TEXT
  5
31C3
330
31BB
100
AcDbEntity
  8
10-TEXT25
 48
10.0
100
AcDbText
 10
4.625718191550845
 20
17.69524353876234
 30
0.0
 40
2.5
  1
not dimensioned radii:
 41
0.8
 11
4.625718191550845
 21
16.86191020542901
 31
0.0
100
AcDbText
 73
     1
  0
TEXT
  5
31C4
330
31BB
100
AcDbEntity
  8
10-TEXT25
 48
10.0
100
AcDbText
 10
4.869549125170237
 20
9.888749680664622
 30
0.0
 40
2.5
  1
thread:
 41
0.8
 11
4.869549125170237
 21
9.055416347331288
 31
0.0
100
AcDbText
 73
     1
  0
TEXT
  5
31C5
330
31BB
100
AcDbEntity
  8
10-TEXT25
 48
10.0
100
AcDbText
 10
4.737540972546526
 20
5.831646974565463
 30
0.0
 40
2.5
  1
surface:
 41
0.8
 11
4.737540972546526
 21
4.99831364123213
 31
0.0
100
AcDbText
 73
     1
  0
TEXT
  5
31C6
330
31BB
100
AcDbEntity
  8
10-TEXT25
 48
10.0
100
AcDbText
 10
4.713723626634532
 20
13.97312144838527
 30
0.0
 40
2.5
  1
outer edges:
 41
0.8
 11
4.713723626634532
 21
13.13978811505194
 31
0.0
100
AcDbText
 73
     1
  0
TEXT
  5
31C7
330
31BB
100
AcDbEntity
  8
10-TEXT25
 48
10.0
100
AcDbText
 10
47.93145501451919
 20
9.888749680664622
 30
0.0
 40
2.5
  1
deburred
 41
0.8
 11
47.93145501451919
 21
9.055416347331288
 31
0.0
100
AcDbText
 73
     1
  0
TEXT
  5
31C8
330
31BB
100
AcDbEntity
  8
10-TEXT25
 48
10.0
100
AcDbText
 10
47.7890587393889
 20
5.831646974565463
 30
0.0
 40
2.5
  1
rough
 41
0.8
 11
47.7890587393889
 21
4.99831364123213
 31
0.0
100
AcDbText
 73
     1
  0
TEXT
  5
31C9
330
31BB
100
AcDbEntity
  8
10-TEXT25
 48
10.0
100
AcDbText
 10
47.93145644984986
 20
14.17807293887491
 30
0.0
 40
2.5
  1
deburred
 41
0.8
 11
47.93145644984986
 21
13.34473960554157
 31
0.0
100
AcDbText
 73
     1
  0
TEXT
  5
31CA
330
31BB
100
AcDbEntity
  8
10-TEXT25
 48
10.0
100
AcDbText
 10
4.793819492296506
 20
41.16075011904952
 30
0.0
 40
2.5
  1
Gewindeanfang/-ende:
 41
0.8
 11
4.793819492296506
 21
40.32741678571619
 31
0.0
100
AcDbText
 73
     1
  0
TEXT
  5
31CB
330
31BB
100
AcDbEntity
  8
10-TEXT25
 48
10.0
100
AcDbText
 10
4.707255205368028
 20
49.13076651838352
 30
0.0
 40
2.5
  1
nicht vermaßte Radien:
 41
0.8
 11
4.707255205368028
 21
48.29743318505018
 31
0.0
100
AcDbText
 73
     1
  0
TEXT
  5
31CC
330
31BB
100
AcDbEntity
  8
10-TEXT25
 48
10.0
100
AcDbText
 10
4.667334036968782
 20
30.00682809499536
 30
0.0
 40
2.5
  1
manufacturing tolerances:
 41
0.8
 11
4.667334036968782
 21
29.17349476166203
 31
0.0
100
AcDbText
 73
     1
  0
TEXT
  5
31CD
330
31BB
100
AcDbEntity
  8
10-TEXT25
 48
10.0
100
AcDbText
 10
5.159512333665816
 20
45.13293175443023
 30
0.0
 40
2.5
  1
Außenkanten:
 41
0.8
 11
5.159512333665816
 21
44.2995984210969
 31
0.0
100
AcDbText
 73
     1
  0
TEXT
  5
31CE
330
31BB
100
AcDbEntity
  8
10-TEXT25
 48
10.0
100
AcDbText
 10
4.793819492296506
 20
37.31971617095402
 30
0.0
 40
2.5
  1
Oberfläche:
 41
0.8
 11
4.793819492296506
 21
36.48638283762068
 31
0.0
100
AcDbText
 73
     1
  0
TEXT
  5
31CF
330
31BB
100
AcDbEntity
  8
10-TEXT25
 48
10.0
100
AcDbText
 10
47.94348052099439
 20
45.33788324491987
 30
0.0
 40
2.5
  1
entgratet
 41
0.8
 11
47.94348052099439
 21
44.50454991158653
 31
0.0
100
AcDbText
 73
     1
  0
TEXT
  5
31D0
330
31BB
100
AcDbEntity
  8
10-TEXT25
 48
10.0
100
AcDbText
 10
47.94348052099439
 20
41.16075011904952
 30
0.0
 40
2.5
  1
entgratet
 41
0.8
 11
47.94348052099439
 21
40.32741678571619
 31
0.0
100
AcDbText
 73
     1
  0
TEXT
  5
31D1
330
31BB
100
AcDbEntity
  8
10-TEXT25
 48
10.0
100
AcDbText
 10
47.80108424586432
 20
37.31971617095402
 30
0.0
 40
2.5
  1
roh
 41
0.8
 11
47.80108424586432
 21
36.48638283762068
 31
0.0
100
AcDbText
 73
     1
  0
TEXT
  5
31D2
330
31BB
100
AcDbEntity
  8
10-TEXT25
 48
10.0
100
AcDbText
 10
47.80108281053367
 20
49.33571800887315
 30
0.0
 40
2.5
  1
R 2,0
 41
0.8
 11
47.80108281053367
 21
48.50238467553982
 31
0.0
100
AcDbText
 73
     1
  0
TEXT
  5
31D3
330
31BB
100
AcDbEntity
  8
10-TEXT25
 48
10.0
100
AcDbText
 10
4.604637967845519
 20
61.6781672521294
 30
0.0
 40
2.5
  1
Fertigungstoleranzen:
 41
0.8
 11
4.604637967845519
 21
60.84483391879607
 31
0.0
100
AcDbText
 73
     1
  0
ENDBLK
  5
31D5
330
31BB
100
AcDbEntity
  8
0
100
AcDbBlockEnd
  0
BLOCK
  5
31E2
330
31DC
100
AcDbEntity
  8
0
100
AcDbBlockBegin
  2
S355J2G3GEZOGEN
 70
     0
 10
0.0
 20
0.0
 30
0.0
  3
S355J2G3GEZOGEN
  1

  0
TEXT
  5
31DD
330
31DC
100
AcDbEntity
  8
02-SCHRIFTKOPF
 48
1.5
100
AcDbText
 10
-0.3417967410029519
 20
11.34673648351842
 30
0.0
 40
3.5
  1
Material: S355J2G3 gezogen nach DIN EN 10 277-2
 41
0.8
 72
     1
 11
58.19153659233041
 21
11.34673648351842
 31
0.0
100
AcDbText
  0
TEXT
  5
31DE
330
31DC
100
AcDbEntity
  8
10-TEXT25
 48
10.0
100
AcDbText
 10
45.43108616084293
 20
4.352570611541395
 30
0.0
 40
3.5
  1
, entspricht Zugfestigkeit >580 N/mm
 41
0.8
100
AcDbText
  0
TEXT
  5
31DF
330
31DC
100
AcDbEntity
  8
10-TEXT25
 48
10.0
100
AcDbText
 10
-0.5066108293111781
 20
4.362011767019248
 30
-3.51
 40
3.5
  1
HBW 10/3000
 41
0.8
 72
     2
 11
29.76005583735548
 21
3.195345100352582
 31
-3.51
100
AcDbText
 73
     1
  0
TEXT
  5
31E0
330
31DC
100
AcDbEntity
  8
10-TEXT25
 48
10.0
100
AcDbText
 10
32.91089453441129
 20
4.35468266367061
 30
-3.51
 40
3.5
  1
>172
 41
0.8
 72
     2
 11
43.71089453441129
 21
3.188015997003944
 31
-3.51
100
AcDbText
 73
     1
  0
TEXT
  5
31E1
330
31DC
100
AcDbEntity
  8
10-TEXT25
 48
10.0
100
AcDbText
 10
130.5918091579152
 20
7.107591654000756
 30
0.0
 40
2.0
  1
2
 41
0.8
100
AcDbText
  0
ENDBLK
  5
31E3
330
31DC
100
AcDbEntity
  8
0
100
AcDbBlockEnd
  0
ENDSEC
  0
SECTION
  2
ENTITIES
  0
CIRCLE
  5
2F3E
330
1503
100
AcDbEntity
  8
03-KONTUR
100
AcDbCircle
 10
757.8087940597929
 20
50.08207602186565
 30
0.0
 40
30.0
  0
LINE
  5
2F3F
330
1503
100
AcDbEntity
  8
03-KONTUR
100
AcDbLine
 10
727.8087940597928
 20
67.40258409755423
 30
0.0
 11
757.8087940597932
 21
84.72309217324337
 31
0.0
  0
LINE
  5
2F40
330
1503
100
AcDbEntity
  8
03-KONTUR
100
AcDbLine
 10
727.8087940597932
 20
32.76156794617715
 30
0.0
 11
727.8087940597928
 21
67.40258409755423
 31
0.0
  0
LINE
  5
2F41
330
1503
100
AcDbEntity
  8
03-KONTUR
100
AcDbLine
 10
757.8087940597924
 20
15.44105987048789
 30
0.0
 11
727.8087940597932
 21
32.76156794617715
 31
0.0
  0
LINE
  5
2F42
330
1503
100
AcDbEntity
  8
03-KONTUR
100
AcDbLine
 10
757.8087940597924
 20
15.44105987048789
 30
0.0
 11
787.8087940597924
 21
32.76156794617679
 31
0.0
  0
LINE
  5
2F43
330
1503
100
AcDbEntity
  8
03-KONTUR
100
AcDbLine
 10
787.8087940597924
 20
32.76156794617679
 30
0.0
 11
787.8087940597926
 21
67.4025840975539
 31
0.0
  0
LINE
  5
2F44
330
1503
100
AcDbEntity
  8
03-KONTUR
100
AcDbLine
 10
787.8087940597926
 20
67.4025840975539
 30
0.0
 11
757.8087940597932
 21
84.72309217324337
 31
0.0
  0
CIRCLE
  5
3143
330
1503
100
AcDbEntity
  8
03-KONTUR
100
AcDbCircle
 10
757.8087940597929
 20
50.08207602186565
 30
0.0
 40
17.8
  0
ENDSEC
  0
SECTION
  2
OBJECTS
  0
DICTIONARY
  5
14F7
330
0
100
AcDbDictionary
281
     1
  3
ACAD_GROUP
350
14F8
  3
ACAD_LAYOUT
350
3189
  3
ACAD_MLINESTYLE
350
14F9
  3
ACAD_PLOTSETTINGS
350
318A
  3
ACAD_PLOTSTYLENAME
350
3187
  0
DICTIONARY
  5
14F8
102
{ACAD_REACTORS
330
14F7
102
}
330
14F7
100
AcDbDictionary
281
     1
  0
DICTIONARY
  5
3189
102
{ACAD_REACTORS
330
14F7
102
}
330
14F7
100
AcDbDictionary
281
     1
  3
Layout1
350
318C
  3
Model
350
318B
  0
DICTIONARY
  5
14F9
102
{ACAD_REACTORS
330
14F7
102
}
330
14F7
100
AcDbDictionary
281
     1
  3
STANDARD
350
1506
  0
DICTIONARY
  5
318A
102
{ACAD_REACTORS
330
14F7
102
}
330
14F7
100
AcDbDictionary
281
     1
  0
ACDBDICTIONARYWDFLT
  5
3187
102
{ACAD_REACTORS
330
14F7
102
}
330
14F7
100
AcDbDictionary
281
     1
  3
Normal
350
3188
100
AcDbDictionaryWithDefault
340
3188
  0
LAYOUT
  5
318C
102
{ACAD_REACTORS
330
3189
102
}
330
3189
100
AcDbPlotSettings
  1

  2
Museum 2. OG BD
  4

  6

 40
0.0
 41
0.0
 42
0.0
 43
0.0
 44
0.0
 45
0.0
 46
0.0
 47
0.0
 48
0.0
 49
0.0
140
0.0
141
0.0
142
1.0
143
1.0
 70
   688
 72
     0
 73
     0
 74
     5
  7

 75
    16
147
1.0
148
0.0
149
0.0
100
AcDbLayout
  1
Layout1
 70
     1
 71
     1
 10
0.0
 20
0.0
 11
12.0
 21
9.0
 12
0.0
 22
0.0
 32
0.0
 14
1.000000000000000E+20
 24
1.000000000000000E+20
 34
1.000000000000000E+20
 15
-1.000000000000000E+20
 25
-1.000000000000000E+20
 35
-1.000000000000000E+20
146
0.0
 13
0.0
 23
0.0
 33
0.0
 16
1.0
 26
0.0
 36
0.0
 17
0.0
 27
1.0
 37
0.0
 76
     0
330
1500
  0
LAYOUT
  5
318B
102
{ACAD_REACTORS
330
3189
102
}
330
3189
100
AcDbPlotSettings
  1

  2
Kyocera Mita FS-1800
  4
A4
  6

 40
6.805083274841308
 41
5.027085304260253
 42
6.805084228515625
 43
5.027069091796875
 44
209.9733276367187
 45
296.9259948730469
 46
0.0
 47
8.96
 48
543.2162585118873
 49
-136.9929676107041
140
920.5562585118872
141
138.507032389296
142
1.0
143
1.403012661911184
 70
 11956
 72
     1
 73
     1
 74
     4
  7

 75
     0
147
0.7127519424078466
148
-543.2162585118873
149
136.9929676107041
100
AcDbLayout
  1
Model
 70
     1
 71
     0
 10
0.0
 20
0.0
 11
12.0
 21
9.0
 12
0.0
 22
0.0
 32
0.0
 14
0.0
 24
0.0
 34
0.0
 15
0.0
 25
0.0
 35
0.0
146
0.0
 13
0.0
 23
0.0
 33
0.0
 16
1.0
 26
0.0
 36
0.0
 17
0.0
 27
1.0
 37
0.0
 76
     0
330
1503
  0
MLINESTYLE
  5
1506
102
{ACAD_REACTORS
330
14F9
102
}
330
14F9
100
AcDbMlineStyle
  2
STANDARD
 70
     0
  3

 62
     0
 51
90.0
 52
90.0
 71
     2
 49
0.5
 62
   256
  6
BYLAYER
 49
-0.5
 62
   256
  6
BYLAYER
  0
ACDBPLACEHOLDER
  5
3188
102
{ACAD_REACTORS
330
3187
102
}
330
3187
  0
ENDSEC
  0
EOF
